вход на сайт

Имя пользователя :
Пароль :

Восстановление пароля Регистрация
Масс Эффект: Ушедший Герой / Mass Effect: Paragon Lost // Фильм 1 (из 1) (2012) [HDRip, любительская (многоголосая)]
Рейтинг:
(голосов: 1)



[img]{THEME}/images/logopost.png[/img]



Масс Эффект: Ушедший Герой / Mass Effect: Paragon Lost

Фильм 1 (из 1)

Год выпуска: 2012
Страна: Япония
Производство студии: Production I.G
Жанр: Фантастика, приключения, боевик

Режиссёр: Такэути Ацуси
Автор оригинала: Такэути Ацуси

Озвучка: любительская (многоголосая)Трина Дубовицкая, Deman, DronRullezzz, , JonEA, [SkyeFilm]
Хардсаб: без хардсаба
Софтсаб: без софтсаба

Описание: Масс Эффект: Ушедший Герой является приквелом к игре Mass Effect 3. В центре сюжета - начало карьеры офицера Альянса Джеймса Веги. Джеймс приходит в элитный отряд спецназа Альянса в начале борьбы с таинственной угрозой, известной как Коллекционеры. Состоя на службе в отдалённой звёздной системе, Джеймс Вега и его напарники должны защитить граждан колонии от вторжения неизвестных, которые пытаются похитить людей.
World Art

Качество: HDRip
Продолжительность: 01:34:26

Формат: AVI
Видео кодек: XviD
Аудио кодек: ac3
Свойства видео: 720x400 (1.80:1), 23.976 fps, XviD build 50, 1798 kbps avg, 0.261 bit/pixel
Свойства аудио: AC3, 48 kHz, 2ch, 448 kbps

отчёт MediaInfo ▼
TextОбщее
Полное имя : D:Mass_Effect_Paragon_Lost_[480p_XviD_Ac3]_[MVO].avi
Формат : AVI
Формат/Информация : Audio Video Interleave
Размер файла : 1,49 Гбайт
Продолжительность : 1 ч. 34 м.
Общий поток : 2256 Кбит/сек
Программа кодирования : VirtualDubMod 1.5.10.2 (build 2540/release)
Библиотека кодирования : VirtualDubMod build 2540/release

Видео
Идентификатор : 0
Формат : MPEG-4 Visual
Профиль формата : Advanced [email protected]
Параметр BVOP формата : 1
Параметр QPel формата : Нет
Параметр GMC формата : Без точки перехода
Параметр матрицы формата : Default (MPEG)
Идентификатор кодека : XVID
Идентификатор кодека/Подсказка : XviD
Продолжительность : 1 ч. 34 м.
Битрейт : 1799 Кбит/сек
Ширина : 720 пикселей
Высота : 400 пикселей
Соотношение сторон : 16:9
Частота кадров : 23,976 кадра/сек
Цветовое пространство : YUV
Субдискретизация насыщенности : 4:2:0
Битовая глубина : 8 бит
Тип развёртки : Прогрессивная
Метод сжатия : С потерями
Бит/(Пиксели*Кадры) : 0.261
Размер потока : 1,19 Гбайт (80%)
Библиотека кодирования : XviD 1.2.1 (UTC 2008-12-04)

Аудио
Идентификатор : 1
Формат : AC-3
Формат/Информация : Audio Coding 3
Расширение режима : CM (complete main)
Параметр Endianness формата : Big
Идентификатор кодека : 2000
Продолжительность : 1 ч. 34 м.
Вид битрейта : Постоянный
Битрейт : 448 Кбит/сек
Каналы : 6 каналов
Расположение каналов : Front: L C R, Side: L R, LFE
Частота : 48,0 КГц
Битовая глубина : 16 бит
Метод сжатия : С потерями
Размер потока : 303 Мбайт (20%)
Выравнивание : Разделение по промежуткам
Продолжительность промежутка : 42 мс. (1,00 видеокадр)
Время предзагрузки промежутка : 500 мс.




f44ae763145d99c84acb841caf68151563245a35Масс Эффект: Ушедший Герой / Mass Effect: Paragon Lost // Фильм 1 (из 1) (2012) [HDRip, любительская (многоголосая)] Масс Эффект: Ушедший Герой / Mass Effect: Paragon Lost // Фильм 1 (из 1) (2012) [HDRip, любительская (многоголосая)] " />

Аплоадер: Админ, дата: 7-01-2013, 14:40, торрент скачан: 359 раз

Понравилась раздача? Посмотрите эти:
  • Бойфренд из будущего / About Time (Ричард Кёртис, Фантастика, драма, комеди ...
  • Одноклассники 2 / Grown Ups 2 (Деннис Дуган, Комедия, 2013) [BDRip, Професс ...
  • Прошлое / Le passé (Асгар Фархади, Драма, детектив , 2013) [HDRip, Авторски ...
  • Паприка / Paprika // Фильм 1, эпизод 1 (из 1) (2006) [BDRip, профессиональн ...
  • Миллион для чайников / The Brass Teapot (Рамаа Мосли, Фэнтези, триллер, ком ...
  • Глушь / Resurrection County (Матт Зеттел, Ужасы,триллер, 2008) [DVDRip, Про ...
  • Двенадцать бедствий на Рождество / The 12 Disasters of Christmas (Стивен Р. ...
  • Жил-был тигр / Ek Tha Tiger (Кабир Кхан, боевик, триллер , 2012) [ HDRip, ...
  • Легенда о МорДу / The Legend of MorDu (Брайан Ларсен, Короткометражный, ска ...
  • Путешествие на дно моря / Voyage to the Bottom of the Sea (Ирвин Аллен / I ...
  • Кажется, я люблю свою жену / I Think I Love My Wife (Крис Рок, Драма, мелод ...
  • Бог любви / God of Love (Люк Мэзени, Короткометражка, фэнтези, комедия, мел ...
  • Взлом: По ту сторону мира / .hack//Sekai no mukou ni // Фильм 1 (из 1) (20 ...
  • Идеальный Голос / Pitch Perfect (Джейсон Мур, Комедия, музыка, 2012) [HDRip ...
  • Боец из трущоб / Gutter King (Кейт Алан Моррис / Keith Alan Morris, боевик, ...
  • Кошмар / Nightmare / Qing Yan (Херман Яу, ужасы, триллер, 2012) [DVDRip, Лю ...
  • Гениальный папа / Father of Invention (Трент Купер, Драма, комедия, 2010) [ ...
  • Глаз шторма / The Eye of the Storm (Фред Скеписи, Драма, 2011) [HDRip, Проф ...
  • Человек из банки (Иван Кульнев, Комедия, 2012) [DVDRip, Не требуется]
  • Сдохни, Джон Такер / John Tucker Must Die (Бетти Томас, мелодрама, комедия, ...
  • Информация
    Посетители, находящиеся в группе Гости, не могут оставлять комментарии к данной публикации.