вход на сайт

Имя пользователя :
Пароль :

Восстановление пароля Регистрация
Взлом: По ту сторону мира / .hack//Sekai no mukou ni // Фильм 1 (из 1) (2012) [HDRip, Любительская (многоголосая, закадровая)]
Рейтинг:
(голосов: 1)



[img]{THEME}/images/logopost.png[/img]



Взлом: По ту сторону мира / .hack//Sekai no mukou ni

Фильм 1 (из 1)

Год выпуска: 2012
Страна:Япония
Производство студии: hack Conglomerate, Bandai Visual Co. Ltd., Cyber Connect 2, Flying Dog, Hakuhodo DY Media Partners, Namco Bandai Games
Жанр: приключения, фэнтези

Режиссёр: Хироши Матсуяма / Hiroshi Matsuyama
Автор оригинала: Кадзунори Ито

Перевод: AniDub-MassTeam
Озвучка: Любительская (многоголосая, закадровая)
Хардсаб: без хардсаба
Софтсаб: без софтсаба

Описание: История фильма разворачивается в 2024 году. 14-летняя школьница Сора Юки под напором друзей начинает играть в популярную сетевую игру «The World», но так случается, что из-за некоего инцидента, события игры начинают влиять на реальный мир.

Качество: HDRip
Продолжительность: 01:51:37

Формат: AVI
Видео кодек: XviD
Аудио кодек: MP3
Свойства видео: 720x304, 23.976 fps, ~ 1301 kbps, 0.248 bit/pixel
Свойства аудио: АС3, 48000 Hz, 6 ch, 448 kbps

отчёт MediaInfo ▼
TextОбщее
Полное имя : D:Vzlom.Po.tu.storonu.mira.2012.L.HDRip.1400MB.avi
Формат : AVI
Формат/Информация : Audio Video Interleave
Размер файла : 1,37 Гбайт
Продолжительность : 1 ч. 51 м.
Общий поток : 1758 Кбит/сек
Программа кодирования : VirtualDubMod 1.5.4.1 (build 2178/release)
Библиотека кодирования : VirtualDub build 33790/release

Видео
Идентификатор : 0
Формат : MPEG-4 Visual
Профиль формата : Advanced [email protected]
Параметр BVOP формата : Нет
Параметр QPel формата : Нет
Параметр GMC формата : Без точки перехода
Параметр матрицы формата : Выборочная
Идентификатор кодека : XVID
Идентификатор кодека/Подсказка : XviD
Продолжительность : 1 ч. 51 м.
Битрейт : 1301 Кбит/сек
Ширина : 720 пикселей
Высота : 304 пикселя
Соотношение сторон : 2,35:1
Частота кадров : 23,976 кадра/сек
Цветовое пространство : YUV
Субдискретизация насыщенности : 4:2:0
Битовая глубина : 8 бит
Тип развёртки : Прогрессивная
Метод сжатия : С потерями
Бит/(Пиксели*Кадры) : 0.248
Размер потока : 1,01 Гбайт (74%)
Библиотека кодирования : XviD 64

Аудио
Идентификатор : 1
Формат : AC-3
Формат/Информация : Audio Coding 3
Расширение режима : CM (complete main)
Параметр Endianness формата : Big
Идентификатор кодека : 2000
Продолжительность : 1 ч. 51 м.
Вид битрейта : Постоянный
Битрейт : 448 Кбит/сек
Каналы : 6 каналов
Расположение каналов : Front: L C R, Side: L R, LFE
Частота : 48,0 КГц
Битовая глубина : 16 бит
Метод сжатия : С потерями
Размер потока : 357 Мбайт (25%)
Выравнивание : Разделение по промежуткам
Продолжительность промежутка : 42 мс. (1,00 видеокадр)
Время предзагрузки промежутка : 500 мс.


faba9f58cb8ad971fce9c6e9b050aa768341aef1Взлом: По ту сторону мира / .hack//Sekai no mukou ni // Фильм 1 (из 1) (2012) [HDRip, Любительская (многоголосая, закадровая)] Взлом: По ту сторону мира / .hack//Sekai no mukou ni // Фильм 1 (из 1) (2012) [HDRip, Любительская (многоголосая, закадровая)] " />

Аплоадер: Админ, дата: 21-12-2012, 13:38, торрент скачан: 359 раз

Понравилась раздача? Посмотрите эти:
  • Бойфренд из будущего / About Time (Ричард Кёртис, Фантастика, драма, комеди ...
  • Одноклассники 2 / Grown Ups 2 (Деннис Дуган, Комедия, 2013) [BDRip, Професс ...
  • Околофутбола (Антон Борматов, драма, криминал, 2013) [DVDRip, Не требуется] ...
  • Призрачный патруль / R.I.P.D. (Роберт Швентке, фэнтези, боевик, комедия, кр ...
  • Паприка / Paprika // Фильм 1, эпизод 1 (из 1) (2006) [BDRip, профессиональн ...
  • Кровью и потом: Анаболики / Pain & Gain (Майкл Бэй, криминал, комедия, трил ...
  • Миллион для чайников / The Brass Teapot (Рамаа Мосли, Фэнтези, триллер, ком ...
  • Жил-был тигр / Ek Tha Tiger (Кабир Кхан, боевик, триллер , 2012) [ HDRip, ...
  • Легенда о МорДу / The Legend of MorDu (Брайан Ларсен, Короткометражный, ска ...
  • Путешествие на дно моря / Voyage to the Bottom of the Sea (Ирвин Аллен / I ...
  • Кажется, я люблю свою жену / I Think I Love My Wife (Крис Рок, Драма, мелод ...
  • Тибетский пес / Tibet inu monogatari // Фильм 1 (из 1) (2012) [BDRip, любит ...
  • Идеальный Голос / Pitch Perfect (Джейсон Мур, Комедия, музыка, 2012) [HDRip ...
  • Боец из трущоб / Gutter King (Кейт Алан Моррис / Keith Alan Morris, боевик, ...
  • Масс Эффект: Ушедший Герой / Mass Effect: Paragon Lost // Фильм 1 (из 1) ( ...
  • Кошмар / Nightmare / Qing Yan (Херман Яу, ужасы, триллер, 2012) [DVDRip, Лю ...
  • Гениальный папа / Father of Invention (Трент Купер, Драма, комедия, 2010) [ ...
  • Глаз шторма / The Eye of the Storm (Фред Скеписи, Драма, 2011) [HDRip, Проф ...
  • Человек из банки (Иван Кульнев, Комедия, 2012) [DVDRip, Не требуется]
  • Сдохни, Джон Такер / John Tucker Must Die (Бетти Томас, мелодрама, комедия, ...
  • Информация
    Посетители, находящиеся в группе Гости, не могут оставлять комментарии к данной публикации.