вход на сайт

Имя пользователя :
Пароль :

Восстановление пароля Регистрация
Теккен: Кровавая месть / Tekken: Blood Vengeance (2011) [BDRip 720p, оригинал, софтсаб]
Рейтинг:
(голосов: 1)



[img]{THEME}/images/logopost.png[/img]



Теккен: Кровавая месть / Tekken: Blood Vengeance


Год выпуска: 2011
Страна: Япония
Производство студии: Digital Frontier
Жанры: боевые искусства, фантастика, приключения, драма

Режиссёр: Мори Ёити
Сценарий: Сато Дай

Перевод: MeasterZen и Asuka the Sparrow
Озвучка: Оригинал
Хардсаб: Нет
Софтсаб: Есть (русские, внешние; английские, встроенные)

Описание: Лин Сяою, мастер китайских боевых искусств, получает задание от Анны Вильямс из корпорации G, находящейся под командованием Казуи Мисима. Задача Лин состоит в том, чтобы проникнуть в качестве шпиона в Киотскую международную школу и найти студента по имени Син Камия. Однако Син совершает самоубийство по неизвестной причине, и раcследование Сяою заходит в тупик. После этого Лин встречает таинственную девушку по имени Алиса, и они продолжают расследование вместе. Они узнают, что Син, вероятно, был кем-то похищен. Сяою хочет спасти Сина, для этого она начинает самостоятельное расследование, но она попадает в огромные владения корпорации Мисима Заибацу, которые скрывают тайные родственные заговоры с участием членов семьи Мисима — Дзина Казама, Казуи Мисима и вероятнее всего скончавшегося Хейхати Мисима.

Качество: BDRip
Продолжительность: 01:32:11

Формат: mkv
Видео кодек: H264
Аудио кодек: DTS
Свойства видео: 1280x720(16:9), 23,976 fps, 5499 kbps, 0.249 bit/pix
Свойства аудио: 48KHz, 755 Kbps, 6ch (Front: L C R, Side: L R, LFE)

Подробные тех.данные: ▼General
Unique ID : 215002388071903269808739604676387893191 (0xA1BFF427AA50B7AD94F629205B116FC7)
Complete name : D:АнимеПолнометражные анимеTekken Blood Vengeance (BDRip 720p)Tekken.Blood.Vengeance.2011.BluRay.720p.mkv
Format : Matroska
Format version : Version 2
File size : 4.03 GiB
Duration : 1h 32mn
Overall bit rate : 6 266 Kbps
Encoded date : UTC 2011-11-27 10:09:12
Writing application : mkvmerge v4.6.0 (Still Crazy After All These Years) сборка от Mar 10 2011 02:50:32
Writing library : libebml v1.2.0 + libmatroska v1.1.0
Video
ID : 1
Format : AVC
Format/Info : Advanced Video Codec
Format profile : [email protected]
Format settings, CABAC : Yes
Format settings, ReFrames : 6 frames
Muxing mode : Header stripping
Codec ID : V_MPEG4/ISO/AVC
Duration : 1h 32mn
Bit rate : 5 499 Kbps
Width : 1 280 pixels
Height : 720 pixels
Display aspect ratio : 16:9
Frame rate : 23.976 fps
Color space : YUV
Chroma subsampling : 4:2:0
Bit depth : 8 bits
Scan type : Progressive
Bits/(Pixel*Frame) : 0.249
Stream size : 3.47 GiB (86%)
Writing library : x264 core 68 r1183M f21daff
Encoding settings : cabac=1 / ref=6 / deblock=1:-3:-3 / analyse=0x3:0x133 / me=umh / subme=9 / psy_rd=1.0:0.0 / mixed_ref=1 / me_range=32 / chroma_me=1 / trellis=2 / 8x8dct=1 / cqm=0 / deadzone=21,11 / chroma_qp_offset=-2 / threads=12 / nr=0 / decimate=1 / mbaff=0 / bframes=6 / b_pyramid=1 / b_adapt=2 / b_bias=0 / direct=3 / wpredb=1 / keyint=250 / keyint_min=25 / scenecut=40 / rc=2pass / bitrate=5499 / ratetol=1.0 / qcomp=0.60 / qpmin=10 / qpmax=51 / qpstep=4 / cplxblur=20.0 / qblur=0.5 / vbv_maxrate=50000 / vbv_bufsize=50000 / ip_ratio=1.40 / pb_ratio=1.30 / aq=1:1.00
Language : English
Audio
ID : 2
Format : DTS
Format/Info : Digital Theater Systems
Muxing mode : Header stripping
Codec ID : A_DTS
Duration : 1h 32mn
Bit rate mode : Constant
Bit rate : 755 Kbps
Channel(s) : 6 channels
Channel positions : Front: L C R, Side: L R, LFE
Sampling rate : 48.0 KHz
Bit depth : 16 bits
Compression mode : Lossy
Stream size : 497 MiB (12%)
Language : Japanese
Text
ID : 3
Format : UTF-8
Codec ID : S_TEXT/UTF8
Codec ID/Info : UTF-8 Plain Text
Language : English


54490bcb0f8a059c3f34ccbbef5b936fcfc45b85Теккен: Кровавая месть / Tekken: Blood Vengeance (2011) [BDRip 720p, оригинал, софтсаб] Теккен: Кровавая месть / Tekken: Blood Vengeance (2011) [BDRip 720p, оригинал, софтсаб] " />

Аплоадер: Админ, дата: 28-11-2011, 13:59, торрент скачан: 359 раз

Понравилась раздача? Посмотрите эти:
  • Посылка / The Package (Джесси Джонсон, боевик, 2013) [BDRip 720p, Профессио ...
  • Теккен: Кровная месть / Tekken: Blood Vengeance // Фильм 1 (из 1) (2011) [D ...
  • Гость / The Caller (Мэттью Паркхилл, триллер, детектив, 2011) [BDRip 720p, ...
  • Суррогат / The Sessions (Бен Луин, драма, 2012) [BDRip 720p, Профессиональн ...
  • [3D] Panasonic Demo Disc 3D 2010-2011 [BDrip-AVC 1080p-720p][Оригинал][Anam ...
  • Исходный код / Source Code (Дункан Джонс, фантастика, боевик, триллер, 2011 ...
  • Дети шпионов 4D / Spy Kids: All the Time in the World in 4D (Роберт Родриге ...
  • Конан-варвар / Conan the Barbarian (Маркус Ниспел, фэнтези, боевик, приключ ...
  • 11-11-11 / 11-11-11 (Даррен Линн Боусман, ужасы, триллер, 2011) [BDRip 720p ...
  • Дом грёз / Dream House (Джим Шеридан, триллер, драма, детектив, 2011) [BDRi ...
  • Домашняя работа / The Art of Getting By (Гэвин Вьесен, драма, мелодрама, 20 ...
  • Закон доблести / Act of Valor (Майк МакКой, Скотт Во, боевик, триллер, прик ...
  • Проект X: Дорвались / Project X (Нима Нуризаде, комедия, 2012) [BDRip 720p, ...
  • Теккен: Кровная месть / Tekken: Blood vengeance // (2011) [BDRip 720p, люби ...
  • Ан-Го: Дневник Инги / Un-Go: Inga-ron // (2011) [BDRip 720p, любительская ...
  • The Australian Pink Floyd Show / Live At Hammersmith Apollo 2011 [2012, Roc ...
  • Mylene Farmer / Du Temps [2011, Pop, HDTVRip]
  • Mylene Farmer / Bleu Noir [2011, Pop, HDTVRip]
  • Теккен: Кровавое Возмездие / Tekken: Blood Vengeance (2011) [BDRip, оригина ...
  • Теккен. Кровная месть / Tekken: Blood Vengeance (2011) [HDRip, Любительский ...
  • Tekken: Кровная месть / Tekken Blood Vengeance // (2011) [HDRip, любительск ...
  • Теккен. Кровная месть / Tekken: Blood Vengeance (2011) [HDRip, Любительский ...
  • Tekken: Кровная месть / Tekken Blood Vengeance // (2011) [HWP, любительский ...
  • Теккен: Кровная месть / Tekken: Blood Vengeance (2011) [BDRip, многоголос ...
  • Теккен: Кровная месть / Tekken: Blood Vengeance (2011) [BDRip, многоголосый ...
  • Информация
    Посетители, находящиеся в группе Гости, не могут оставлять комментарии к данной публикации.