вход на сайт

Имя пользователя :
Пароль :

Восстановление пароля Регистрация
Могила светлячков / Hotaru no Haka / Grave of the Fireflies // (1988) [ DVDRip, Профессиональная (Одноголосая, Ю.Сербин)]
Рейтинг:
(голосов: 1)



[img]{THEME}/images/logopost.png[/img]



Могила Светлячков / Hotaru no haka

Год выпуска: 1988 г.
Страна: Япония
Производство студии: STUDIO GHIBLI
Жанр: Мультфильм, драма, история, война

Режиссёр: Такахата Исао

Перевод: Ю. Сербин
Озвучка: Профессиональная (Одноголосая, Ю.Сербин)
Хардсаб: нет
Софтсаб: нет

Описание:Последние дни Второй Мировой войны. Американская авиация бомбит беззащитные японские города. В водоворот людского каждодневного кошмара попадают 14-летнии Сэйта и его сестренка Сэцуко. Понеся самую горькую утрату — потерю близких, они остались совсем одни. Юный мальчик в одночасье становится взрослым, столкнувшись с жестокостью мира. Он осознаёт, что от него зависит жизнь его маленькой сестры.

Укрывшись в заброшенном убежище, Сэйта и Сэцуко пытаются выжить, положившись только на свои силы. И пусть в глазах смертоносный огонь в небе — всего лишь огоньки светлячков, жестокая война не щадит даже невинные детские души, вынося им свой беспощадный приговор…

Качество: DVDRip
Продолжительность: 01:28:00

Формат: AVI
Видео кодек: XviD
Аудио кодек: AC3
Свойства видео: 720x400, 23.976 fps, 2365 kbps, 0.309 bit/pixel
Свойства аудио: 48 kHz, 6 ch, 224 kbps

MediaInfo ▼ TextGeneral
Complete name : D:MoviesAnimehotaru_no_haka.avi
Format : AVI
Format/Info : Audio Video Interleave
File size : 1.46 GiB
Duration : 1h 28mn
Overall bit rate : 2 365 Kbps
Movie name : Hotaru no haka
Director : Rip by Deep Fusion
Writing application : VirtualDubMod 1.5.10.3 | www.virtualdub-fr.org || (build 2550/release)
Writing library : VirtualDubMod build 2550/release
Copyright : Deep Fusion

Video
ID : 0
Format : MPEG-4 Visual
Format profile : Advanced [email protected]
Format settings, BVOP : 1
Format settings, QPel : No
Format settings, GMC : No warppoints
Format settings, Matrix : Custom
Codec ID : XVID
Codec ID/Hint : XviD
Duration : 1h 28mn
Bit rate : 2 131 Kbps
Width : 720 pixels
Height : 400 pixels
Display aspect ratio : 16:9
Frame rate : 23.976 fps
Color space : YUV
Chroma subsampling : 4:2:0
Bit depth : 8 bits
Scan type : Progressive
Compression mode : Lossy
Bits/(Pixel*Frame) : 0.309
Stream size : 1.32 GiB (90%)
Writing library : XviD 64

Audio
ID : 1
Format : AC-3
Format/Info : Audio Coding 3
Mode extension : CM (complete main)
Format settings, Endianness : Big
Codec ID : 2000
Duration : 1h 28mn
Bit rate mode : Constant
Bit rate : 224 Kbps
Channel(s) : 6 channels
Channel positions : Front: L C R, Side: L R, LFE
Sampling rate : 48.0 KHz
Bit depth : 16 bits
Compression mode : Lossy
Stream size : 142 MiB (9%)
Alignment : Split accross interleaves
Interleave, duration : 42 ms (1.00 video frame)
Interleave, preload duration : 500 ms[/cоde]


fd9ce6397f9189f2c8c464980e8a3735908c88e3Могила светлячков / Hotaru no Haka / Grave of the Fireflies // (1988) [ DVDRip, Профессиональная (Одноголосая, Ю.Сербин)] Могила светлячков / Hotaru no Haka / Grave of the Fireflies // (1988) [ DVDRip, Профессиональная (Одноголосая, Ю.Сербин)] " />

Аплоадер: Админ, дата: 9-03-2013, 01:02, торрент скачан: 359 раз

Понравилась раздача? Посмотрите эти:
  • Вирус / Flu (Ким Сон Су, Драма, 2013) [HDTVRip, Любительский (двухголосый з ...
  • Орудие смерти / A-i-deul... (Ли Гю Ман, Триллер, криминал, 2011) [DVDRip, П ...
  • Мои герои / Mes heros (Эрик Беснард, комедия, 2012) [HDRip, Профессиональны ...
  • Мужество / Wymyk (Грег Зглински, драма, 2011) [DVDRip, Любительский (одного ...
  • Решала (Роман Асхаев, Драма,Криминал, 2012) [WEB-DLRip, Не требуется]
  • Звук моего голоса / Sound of My Voice (Зал Батманглидж, триллер, драма, 201 ...
  • 23:59 / 23:59 (Гилберт Чан, Ужасы, 2011) [HDRip, Любительский (одноголосый ...
  • Настоящее кунг-фу / Fat shan chaan sin sang / Real kung-fu // Сезон 1, Эпиз ...
  • Могила светлячков / Hotaru no Haka // (1988) [BD-Remux 1080p, Профессионал ...
  • Тюремщик / Screwed (Рег Тревисс / Reg Traviss, Драма, 2011) [DVDRip , Люби ...
  • Плохая актриса / Bad Actress (Роберт Ли Кинг, комедия, 2011) [DVDRip, Профе ...
  • Захват / Carjacked (Джон Бонито, триллер, 2011)[BDRip, Профессиональный (мн ...
  • Чемпионат Европы 2012 / Группа D / 1-й тур / Украина - Швеция / Спорт 1 [11 ...
  • Могила светлячков DVD5
  • Могила светлячков / Hotaru no Haka / Grave of the Fireflies // (1988) [ DVD ...
  • Могила светлячков / Grave of the Fireflies / Hotaru No Haka (1988) [BDRip 1 ...
  • Могила светлячков / Hotaru no Haka // (1988) [BDRip 720p, Профессиональная ...
  • Могила светлячков / Hotaru No Haka / 火垂るの墓 [1988 / полнометражное аниме / д ...
  • Супершторм в Сиэтле / Seattle Superstorm (Джейсон Бурк, фантастика, боевик ...
  • Крузо / Crusoe (Калеб Дешанель, Драма, 1988) [HDTVRip, Профессиональный (дв ...
  • Информация
    Посетители, находящиеся в группе Гости, не могут оставлять комментарии к данной публикации.