вход на сайт

Имя пользователя :
Пароль :

Восстановление пароля Регистрация
Ариэти из страны лилипутов / Karigurashi no Arrietty / The Secret World of Arrietty // (2010) [BDRip, Любительская (двухголосая, Трина Дубовицкая, Sad Kit)]
Рейтинг:
(голосов: 1)



[img]{THEME}/images/logopost.png[/img]



Ариэти из страны лилипутов / Karigurashi no Arrietty

Год выпуска: 2010
Страна: Япония
Производство студии: Studio Ghibli
Жанр: приключения, сказка

Режиссёр: Ёнэбаяси Хиромаса
Автор оригинала: Мэри Нортон

Перевод: Advantage
Озвучка: Любительская (двухголосая, Трина Дубовицкая, Sad Kit)
Хардсаб: нет
Софтсаб: нет

Описание: История маленьких людей, которые живут рядом с нами, одалживая вещи по чуть-чуть. Их существование хранится в секрете. Но юная Арриетти нарушает запрет. Ее обнаруживает 12-летний Шо, и они становятся лучшими друзьями.


Качество: BDRip
Продолжительность: 01:34:07

Формат: AVI
Видео кодек: XviD
Аудио кодек: MP3
Свойства видео: 720x384, ~2100 Кбит/сек, 23.976 кадр/сек, 0,319 bit/pixel
Свойства аудио: 48 КГц, 2 канала,192 Кбит/сек

MediaInfo ▼ TextGeneral
Complete name : D:MoviesAnime[Karigurashi no Arrietty [BDrip 720x384 XviD].avi
Format : AVI
Format/Info : Audio Video Interleave
File size : 1.78 GiB
Duration : 1h 34mn
Overall bit rate : 2 707 Kbps
Writing application : VirtualDubMod 1.5.10.2 (build 2542/release)
Writing library : VirtualDubMod build 2542/release

Video
ID : 0
Format : MPEG-4 Visual
Format profile : Advanced [email protected]
Format settings, BVOP : 2
Format settings, QPel : No
Format settings, GMC : No warppoints
Format settings, Matrix : Default (H.263)
Codec ID : XVID
Codec ID/Hint : XviD
Duration : 1h 34mn
Bit rate : 2 117 Kbps
Width : 720 pixels
Height : 384 pixels
Display aspect ratio : 1.85:1
Frame rate : 23.976 fps
Color space : YUV
Chroma subsampling : 4:2:0
Bit depth : 8 bits
Scan type : Progressive
Compression mode : Lossy
Bits/(Pixel*Frame) : 0.319
Stream size : 1.39 GiB (78%)
Writing library : XviD 1.2.1 (UTC 2008-12-04)

Audio #1
ID : 1
Format : MPEG Audio
Format version : Version 1
Format profile : Layer 3
Codec ID : 55
Codec ID/Hint : MP3
Duration : 1h 34mn
Bit rate mode : Constant
Bit rate : 192 Kbps
Channel(s) : 2 channels
Sampling rate : 48.0 KHz
Compression mode : Lossy
Stream size : 129 MiB (7%)
Alignment : Aligned on interleaves
Interleave, duration : 42 ms (1.00 video frame)
Interleave, preload duration : 504 ms
Title : Trina_d & sad_kit [Anything-group] [Russian]
Writing library : LAME3.98
Encoding settings : -m s -V 4 -q 3 -lowpass 18.6 -b 192
[/cоde]


07119c1b3d3ed5b2fa72b1a699e0ce34e9bb3da7Ариэти из страны лилипутов / Karigurashi no Arrietty / The Secret World of Arrietty // (2010) [BDRip, Любительская (двухголосая, Трина Дубовицкая, Sad Kit)] Ариэти из страны лилипутов / Karigurashi no Arrietty / The Secret World of Arrietty // (2010) [BDRip, Любительская (двухголосая, Трина Дубовицкая, Sad Kit)] " />

Аплоадер: Админ, дата: 9-03-2013, 00:27, торрент скачан: 359 раз

Понравилась раздача? Посмотрите эти:
  • Мэрдок Скрэмбл: Выхлоп / Mardock Scramble: Haiki // Фильм 3 (из 3) (2012) [ ...
  • Мэрдок Скрэмбл: Сжатие / Mardock Scramble: Asshuku // Фильм 1 (из 3) (2010) ...
  • Вторжение Титанов / Shingeki no Kyojin // Сезон 1, Эпизод 1 (из 22) (2013) ...
  • Карнавальный Фантазм / Carnival Phantasm // OVA, Эпизоды с 1 по 12 (из 12+) ...
  • Наследник Дьявола / Devil Survivor // Сезон 1, Эпизоды с 01 по 01 (из 13) ( ...
  • Как и ожидал, моя школьная романтическая жизнь не удалась / Yahari Ore no S ...
  • Чемпионат Европы 2012 / Группа D / 1-й тур / Украина - Швеция / Спорт 1 [11 ...
  • Ариэтти из страны лилипутов / Karigurashi no Arietti (2010) [HDRip, Професс ...
  • Ариэтти из страны лилипутов / Добывайка Ариэтти / Karigurashi no Arietti / ...
  • Ариэтти из страны лилипутов / Kari-gurashi no Arietti // (2010) [BDRip 1080 ...
  • Ёрмунганд / Jormungand // Сезон 1, Эпизоды с 1 по 12 (из 12) (2012) [HDTVRi ...
  • Ариэти из страны лилипутов / Karigurashi no Arrietty / The Secret World of ...
  • Котоура-сан / Kotoura-san // Сезон 1, Эпизоды с 1 по 3 (из 12) (2013) [HDTV ...
  • Котоура-сан / Kotoura-san // Сезон 1, Эпизоды с 1 по 2 (из 12) (2013) [HDTV ...
  • Котоура-сан / Kotoura-san // Сезон 1, Эпизоды с 1 по 1 (из 12) (2013) [HDTV ...
  • Ариэти из страны лилипутов / Karigurashi no Arietti / The Borrower Arrietty ...
  • Ариэти из страны лилипутов / Karigurashi no Arrietty (2010) [BDRip, Любител ...
  • Ариэтти из страны лилипутов / Добывайка Ариэтти /Karigurashi no Arietti (20 ...
  • Ариэтти из страны лилипутов / Kari-gurashi no Arietti (2010) [HDRip, Дублир ...
  • Чемпионат Европы 2012 / Группа B / 1-й тур / Германия - Португалия / Спорт ...
  • Ариэтти из страны лилипутов / Kari-gurashi no Arietti (2010) [BDRip, Дубли ...
  • Со склонов Кокурико / From Up on Poppy Hill (2011) [HDRip, любительская (дв ...
  • Мой мальчик / По секрету, мальчик / Ma Boy / Сезон 1, Эпизоды с 1 по 3 (из ...
  • Мэрдок Скрэмбл: Сжатие / Mardock Scramble: Asshuku // Фильм 1 (из 3) (2010) ...
  • Мэрдок Скрэмбл: Горение / Mardock Scramble: Nenshou // Фильм 2 (из 3) (2011 ...
  • Информация
    Посетители, находящиеся в группе Гости, не могут оставлять комментарии к данной публикации.