вход на сайт

Имя пользователя :
Пароль :

Восстановление пароля Регистрация
Паприка / Paprika // Фильм 1, эпизод 1 (из 1) (2006) [BDRip, профессиональная (многоголосая, ВидеоСервис)]
Рейтинг:
(голосов: 1)



[img]{THEME}/images/logopost.png[/img]



«Паприка / Paprika»

¤Фильм 1, эпизод 1 (из 1)¤

Год выпуска: 2006
Страна: Япония
Производство: Madhouse, Paprika Film Partners, Sony Pictures Entertainment (Japan)
Жанр: мистика, триллер

Режиссёр: Сатоси Кон / Satoshi Kon
Автор оригинала: Цуцуй Ясутака

Перевод: ВидеоСервис
Озвучка: Профессиональная (многоголосая, ВидеоСервис)
Хардсаб: нет
Софтсаб: нет

Описание
¤ ¤ ¤
- ...Действие происходит вокруг DC Mini — устройства, позволяющее терапевтам проникать в сны пациентов, а также записывать «содержимое» на пленку. Три таких устройства были украдены, что дает их владельцу возможность не только проникать в фантазии людей, но также проникать в сознание и открывать им путь в собственные фантазии. Задача героев состоит в возвращении устройств, в выполнении которой на помощь приходит загадочная девушка — Паприка... -
World Art
¤ ¤ ¤

Качество: BDRip
Продолжительность: ~ 01:26:49 часа

Формат: AVI
Видео кодек: XviD
Аудио кодек: AC-3
Свойство видео: 720x384, 25 fps, ~1938 kbps avg, 0.281 bit/pixel
Свойство аудио: 48 kHz, 3/2 (L,C,R,l,r) + LFE ch, ~448 kbps

отчет MediaInfo ▼TextОбщее
Полное имя : E:DownloadsПаприка.2006.BDRip.avi
Формат : AVI
Формат/Информация : Audio Video Interleave
Размер файла : 1,45 Гбайт
Продолжительность : 1 ч. 26 м.
Общий поток : 2397 Кбит/сек
Программа кодирования : VirtualDubMod 1.5.10.2 (build 2540/release)
Библиотека кодирования : VirtualDubMod build 2540/release

Видео
Идентификатор : 0
Формат : MPEG-4 Visual
Профиль формата : Advanced [email protected]
Параметр BVOP формата : 2
Параметр QPel формата : Нет
Параметр GMC формата : Без точки перехода
Параметр матрицы формата : Default (MPEG)
Идентификатор кодека : XVID
Идентификатор кодека/Подсказка : XviD
Продолжительность : 1 ч. 26 м.
Битрейт : 1939 Кбит/сек
Ширина : 720 пикселей
Высота : 384 пикселя
Соотношение сторон : 1,875
Частота кадров : 25,000 кадров/сек
Частота кадров в оригинале : 23,976 кадра/сек
Цветовое пространство : YUV
Субдискретизация насыщенности : 4:2:0
Битовая глубина : 8 бит
Тип развёртки : Прогрессивная
Метод сжатия : С потерями
Бит/(Пиксели*Кадры) : 0.281
Размер потока : 1,18 Гбайт (81%)
Библиотека кодирования : XviD 1.2.1 (UTC 2008-12-04)

Аудио
Идентификатор : 1
Формат : AC-3
Формат/Информация : Audio Coding 3
Расширение режима : CM (complete main)
Идентификатор кодека : 2000
Продолжительность : 1 ч. 26 м.
Вид битрейта : Постоянный
Битрейт : 448 Кбит/сек
Каналы : 6 каналов
Расположение каналов : Front: L C R, Side: L R, LFE
Частота : 48,0 КГц
Битовая глубина : 16 бит
Метод сжатия : С потерями
Задержка видео : 1 с. 610 мс.
Размер потока : 278 Мбайт (19%)
Выравнивание : Разделение по промежуткам
Продолжительность промежутка : 40 мс. (1,00 видеокадр)
Время предзагрузки промежутка : 500 мс.


b95c628016ebb761aa9945bd60e9c55abfe00288Паприка / Paprika // Фильм 1, эпизод 1 (из 1) (2006) [BDRip, профессиональная (многоголосая, ВидеоСервис)] Паприка / Paprika // Фильм 1, эпизод 1 (из 1) (2006) [BDRip, профессиональная (многоголосая, ВидеоСервис)] " />

Аплоадер: Админ, дата: 4-10-2013, 11:29, торрент скачан: 359 раз

Понравилась раздача? Посмотрите эти:
  • Бойфренд из будущего / About Time (Ричард Кёртис, Фантастика, драма, комеди ...
  • Одноклассники 2 / Grown Ups 2 (Деннис Дуган, Комедия, 2013) [BDRip, Професс ...
  • Околофутбола (Антон Борматов, драма, криминал, 2013) [DVDRip, Не требуется] ...
  • Кровью и потом: Анаболики / Pain & Gain (Майкл Бэй, криминал, комедия, трил ...
  • Миллион для чайников / The Brass Teapot (Рамаа Мосли, Фэнтези, триллер, ком ...
  • Глушь / Resurrection County (Матт Зеттел, Ужасы,триллер, 2008) [DVDRip, Про ...
  • Двенадцать бедствий на Рождество / The 12 Disasters of Christmas (Стивен Р. ...
  • Жил-был тигр / Ek Tha Tiger (Кабир Кхан, боевик, триллер , 2012) [ HDRip, ...
  • Легенда о МорДу / The Legend of MorDu (Брайан Ларсен, Короткометражный, ска ...
  • Паприка / Paprika (2006) [DVDRip, Оригинал, софтсаб]
  • Глядя на полумесяц / Hanbun no Tsuki ga Noboru Sora // Сезон 1, Эпизоды с 1 ...
  • Отбой / Taps (Харольд Беккер, Драма, 1981) [DVDRip, Профессиональный (много ...
  • Путешествие на дно моря / Voyage to the Bottom of the Sea (Ирвин Аллен / I ...
  • Кажется, я люблю свою жену / I Think I Love My Wife (Крис Рок, Драма, мелод ...
  • Бог любви / God of Love (Люк Мэзени, Короткометражка, фэнтези, комедия, мел ...
  • Взлом: По ту сторону мира / .hack//Sekai no mukou ni // Фильм 1 (из 1) (20 ...
  • Идеальный Голос / Pitch Perfect (Джейсон Мур, Комедия, музыка, 2012) [HDRip ...
  • Боец из трущоб / Gutter King (Кейт Алан Моррис / Keith Alan Morris, боевик, ...
  • Масс Эффект: Ушедший Герой / Mass Effect: Paragon Lost // Фильм 1 (из 1) ( ...
  • Кошмар / Nightmare / Qing Yan (Херман Яу, ужасы, триллер, 2012) [DVDRip, Лю ...
  • Приключения Тинтина: Тайна Единорога / The Adventures of Tintin (Стивен Спи ...
  • Гениальный папа / Father of Invention (Трент Купер, Драма, комедия, 2010) [ ...
  • Глаз шторма / The Eye of the Storm (Фред Скеписи, Драма, 2011) [HDRip, Проф ...
  • Человек из банки (Иван Кульнев, Комедия, 2012) [DVDRip, Не требуется]
  • Сдохни, Джон Такер / John Tucker Must Die (Бетти Томас, мелодрама, комедия, ...
  • Информация
    Посетители, находящиеся в группе Гости, не могут оставлять комментарии к данной публикации.