вход на сайт

Имя пользователя :
Пароль :

Восстановление пароля Регистрация
Мэрдок Скрэмбл: Горение / Mardock Scramble Nenshou // Фильм 2 (из 3) (2011) [BDRip 720p, оригинал, софтсаб]
Рейтинг:
(голосов: 1)



[img]{THEME}/images/logopost.png[/img]



Мэрдок Скрэмбл: Горение (фильм второй)
Mardock Scramble Nenshou

Фильм 2 (из 3)

Год выпуска: 2011
Страна: Япония
Производство студии: GoHands
Жанр: приключения, киберпанк

Режиссёр: Кудо Сусуму
Автор оригинала: Убуката То

Перевод: Nesitach, Stan WarHammer
Озвучка: Оригинал
Хардсаб: нет
Софтсаб: есть (внешний, русский)

Описание: Рун Балот плача пытается спасти себя и тяжело раненого Оифкоку от убийцы Шелла - Бойлда. К счастью для нее, Доктор Истер появляется на Хампти Дампти - специальной военной машине созданной для защиты Благосостоятельных,если их жизнь под угрозой. Отсюда они направились в Парадиз, место где технологии Скрембл 09 были созданы (и возродился Бойлд). Все тайны прошлого Мардок Сити (и возможно его будущее) показаны в этой захватывающей второй части серии Мардок Скрембл, Балот повысит ставки и сделает выбор между своей справедливостью или мирной жизнью в Парадиз. Второй фильм из трилогии про девушку–киборга Балоту. Игра в кошки–мышки продолжается, только на сей раз кошка с мышкой поменялись местами.

Качество: BDRip 720р
Продолжительность: 60 мин.

Формат: MP4
Видео кодек: H.264
Аудио кодек: AAC
Свойства видео: 1280x720 ~4000 kbps avg, 23.976fps, 0.164 bit/pixel
Свойства аудио: 48000Hz, ~450 avg kbps, 6ch

отчет MediaInfo ▼TextGeneral
Complete name : [QTS] Mardock Scramble The Second Combustion -Complete Version- (BD H264 1280x720 AAC 24fps 5.1ch).mp4
Format : MPEG-4
Format profile : Base Media
Codec ID : isom
File size : 1.82 GiB
Duration : 1h 4mn
Overall bit rate mode : Variable
Overall bit rate : 4 060 Kbps
Video #1
ID : 1
Format : AVC
Format/Info : Advanced Video Codec
Format profile : [email protected]
Format settings, CABAC : Yes
Format settings, ReFrames : 4 frames
Codec ID : avc1
Codec ID/Info : Advanced Video Coding
Duration : 1h 4mn
Bit rate : 3 628 Kbps
Maximum bit rate : 23.5 Mbps
Width : 1 280 pixels
Height : 720 pixels
Display aspect ratio : 16:9
Frame rate : 23.976 fps
Color space : YUV
Chroma subsampling : 4:2:0
Bit depth : 8 bits
Bits/(Pixel*Frame) : 0.164
Stream size : 1.63 GiB (89%)
Writing library : x264 core 125 r2208 d9d2288
Language : Japanese

Audio #2
ID : 2
Format : AAC
Format/Info : Advanced Audio Codec
Format profile : LC
Codec ID : 40
Duration : 1h 4mn
Bit rate mode : Variable
Bit rate : 428 Kbps
Maximum bit rate : 512 Kbps
Channel(s) : 6 channels
Channel positions : Front: L C R, Side: L R, LFE
Sampling rate : 48.0 KHz
Compression mode : Lossy
Stream size : 196 MiB (11%)
Title : Japanese Audio 5.1ch
Language : Japanese


21108618ddf988a4a844dfa54a44fd3e000ceca5Мэрдок Скрэмбл: Горение / Mardock Scramble Nenshou // Фильм 2 (из 3) (2011) [BDRip 720p, оригинал, софтсаб] Мэрдок Скрэмбл: Горение / Mardock Scramble Nenshou // Фильм 2 (из 3) (2011) [BDRip 720p, оригинал, софтсаб] " />

Аплоадер: Админ, дата: 10-08-2012, 09:57, торрент скачан: 359 раз

Понравилась раздача? Посмотрите эти:
  • Мэрдок Скрэмбл: Выхлоп / Mardock Scramble: Haiki // Фильм 3 (из 3) (2012) [ ...
  • NBA 2013-2014 / RS / Highlights [Баскетбол, 04.11.2013, WEB-DL HD/720p, MP4 ...
  • Мэрдок Скрэмбл: Выхлоп / Mardock Scramble: Haiki // Фильм 3 (из 3) (2012) [ ...
  • Мэрдок Скрэмбл: Сжатие / Mardock Scramble: Asshuku // Фильм 1 (из 3) (2010) ...
  • Мэрдок Скрэмбл: Горение / Mardock Scramble: Nenshou // Фильм 2 (из 3) (2011 ...
  • NBA Playoffs 2013 / Highlights Playoff Edition [Баскетбол, 05.05.2013, WEB ...
  • NBA Playoffs 2013 / Highlights Playoff Edition [Баскетбол, 06.05.2013, WEB ...
  • NBA Playoffs 2013 / Highlights Playoff Edition [Баскетбол, 07.05.2013, WEB ...
  • NBA Playoffs 2013 / Highlights Playoff Edition [Баскетбол, 08.05.2013, WEB ...
  • NBA Playoffs 2013 / Highlights Playoff Edition [Баскетбол, 10.05.2013, WEB ...
  • NBA Playoffs 2013 / Highlights Playoff Edition [Баскетбол, 11.05.2013, WEB ...
  • NHL 12/13 / Stanley Cup Playoffs / East / Semifinals / Game 1 / New York Ra ...
  • Видеообзор Metro Last Light от PlayGround (17.05.2013., WEB-DL HD/720p, MP4 ...
  • WWE Extreme Rules + Preshow [19.05.2013, Рестлинг, WEB-DL-HDTV/720p, MP4-MK ...
  • Prodigy (of Mobb Deep) / Pretty Thug [2012, Rap, WEBRip]
  • Owl City feat. Shawn Chrystopher / Alligator Sky [2011, Electronic, HDRip]
  • Machete / Нежность [2011, R&B, HDRip]
  • Lana Del Rey / Born To Die [2011, Indie Pop, HDRip]
  • Madonna / Girl Gone Wild [2012, Pop, HDTV]
  • LeBron James 2012 Finals MVP [Баскетбол, 24.06.2012, HD, 720p, H.264, EN, H ...
  • Top 10 Plays of the 2012 NBA Finals [Баскетбол, 25.06.2012, HD, 720p, H.264 ...
  • Top 10 Dunks of the 2012 NBA Finals [Баскетбол, 25.06.2012, HD, 720p, H.264 ...
  • Чемпионат Европы 2012 / TOP 10 Goals & Best Moments [Футбол, 04.07.2012, HD ...
  • Мэрдок Скрэмбл: Сжатие / Mardock Scramble: Asshuku // Фильм 1 (из 3) (2010) ...
  • Мэрдок Скрэмбл: Горение / Mardock Scramble: Nenshou // Фильм 2 (из 3) (2011 ...
  • Информация
    Посетители, находящиеся в группе Гости, не могут оставлять комментарии к данной публикации.