вход на сайт

Имя пользователя :
Пароль :

Восстановление пароля Регистрация
Со склонов Кокурико / From Up on Poppy Hill (2011) [HDRip, любительская (двухголосая)x2 + оригинал]
Рейтинг:
(голосов: 1)



[img]{THEME}/images/logopost.png[/img]



Со склонов Кокурико / From Up on Poppy Hill

Год выпуска: 2011
Страна: Япония
Производство студии: Studio GHIBLI
Жанр: Повседневность, школа, сёдзё

Режиссёр: Миядзаки Горо
Автор оригинала: Миядзаки Хаяо

Перевод: Advantage
Озвучка:
- любительская (двухголосая) - OSLIKt & Трина Дубовицкая
- любительская (двухголосая) - Eladiel & Absurd
- оригинал
Хардсаб: Нет
Софтсаб: нет

Описание: Жила-была старшеклассница Юми. Отец её, будучи капитаном судна, подорвался на мине во время войны с Кореей. Мама в отъезде. Вот и приходится Юми самой возиться хозяйству, при этом, не забывая каждое утро поднимать флажки - такое правило завёл отец, чтобы видеть с моря, что его ждут дома.
В городке имеется школьный клуб, с различными секциями по интересам. Этот клуб хотят снести, т.к. здание старое. И вот Юми, вместе с другими школьными активистами приходится ехать в Токио к высшему руководству, дабы спасти дом от разрушения.
И всё бы ничего, если бы эта история не была переплетена коллизиями прошедших военных лет, когда людям приходилось идти на трудные и, подчас, нелегкие поступки...

Качество: HDRip
Продолжительность:01:30:51

Формат: AVI
Видео кодек: XviD
Аудио кодек: MP3
Свойства видео: 704x380 (1.85:1), 23.976 fps, 1547 kbps, 0.241 bit/pixel
Свойства аудио:№148 kHz, 2 ch, 192 kbps Eladiel & Absurd
Свойства аудио:№248 kHz, 2 ch, 192 kbps [OSLIKt & Трина Дубовицкая]
Свойства аудио:№348 kHz, 2 ch, 192 kbps [Japanese]

отчет MediaInfo ▼Text _So_sklonov_Kokuriko_2011_HDRip_.avi
General
Complete name : _So_sklonov_Kokuriko_2011_HDRip_.avi
Format : AVI
Format/Info : Audio Video Interleave
File size : 1.36 GiB
Duration : 1h 30mn
Overall bit rate : 2 142 Kbps
Writing application : VirtualDubModRus 1.5.10.2 (build 2542/release)
Writing library : VirtualDubMod build 2542/release
Video #0
ID : 0
Format : MPEG-4 Visual
Format profile : Advanced [email protected]
Format settings, BVOP : 2
Format settings, QPel : No
Format settings, GMC : No warppoints
Format settings, Matrix : Default (H.263)
Codec ID : XVID
Codec ID/Hint : XviD
Duration : 1h 30mn
Bit rate : 1 547 Kbps
Width : 704 pixels
Height : 380 pixels
Display aspect ratio : 1.853
Frame rate : 23.976 fps
Color space : YUV
Chroma subsampling : 4:2:0
Bit depth : 8 bits
Scan type : Progressive
Compression mode : Lossy
Bits/(Pixel*Frame) : 0.241
Stream size : 1 006 MiB (72%)
Writing library : XviD 64
Audio #1
ID : 1
Format : MPEG Audio
Format version : Version 1
Format profile : Layer 3
Mode : Joint stereo
Mode extension : MS Stereo
Codec ID : 55
Codec ID/Hint : MP3
Duration : 1h 30mn
Bit rate mode : Constant
Bit rate : 192 Kbps
Channel(s) : 2 channels
Sampling rate : 48.0 KHz
Compression mode : Lossy
Stream size : 125 MiB (9%)
Alignment : Aligned on interleaves
Interleave, duration : 42 ms (1.00 video frame)
Interleave, preload duration : 504 ms
&nbs
5b9f3f39541e3e2820cd4cd7d5f5fcd86ed7427bСо склонов Кокурико / From Up on Poppy Hill (2011) [HDRip, любительская (двухголосая)x2 + оригинал] Со склонов Кокурико / From Up on Poppy Hill (2011) [HDRip, любительская (двухголосая)x2 + оригинал] " />

Аплоадер: Админ, дата: 1-08-2012, 12:51, торрент скачан: 359 раз

Понравилась раздача? Посмотрите эти:
  • Погнали! / Getaway (Кортни Соломон, Боевик,Криминал, 2013) [HDRip, Професси ...
  • Мои герои / Mes heros (Эрик Беснард, комедия, 2012) [HDRip, Профессиональны ...
  • Чемпионат Италии 2012-13 / 36-й тур / Рома — Кьево / НТВ+ [07.05.2013, SD, ...
  • Ариэти из страны лилипутов / Karigurashi no Arrietty / The Secret World of ...
  • Молодежный чемпионат мира 2012 (U-20). Четвертьфинал: Россия - Чехия [02.01 ...
  • Чемпионат Германии 2011-12 / 28-й тур / Боруссия Д - Штутгарт / НТВ+ [Футбо ...
  • Чемпионат Испании 2011-12 / 36-й тур / Реал Мадрид - Севилья / НТВ+ [Футбол ...
  • Чемпионат Европы 2012 / Группа C / 1-й тур / Ирландия — Хорватия / ТРК Футб ...
  • Чемпионат Европы 2012 / Группа D / 1-й тур / Украина - Швеция / Спорт 1 [11 ...
  • Олимпиада 2012 / Мужчины / Группа D / 1-й тур / Испания — Япония / НТВ+ [Фу ...
  • Олимпиада 2012 / Футбол / Мужчины / Группа A / 3-й тур / Великобритания - У ...
  • С маковых склонов / From Up on Poppy Hill / Coquelicot Saka kara // (2011) ...
  • Со склонов Кокурико / From Up on Poppy Hill / Kokuriko Saka kara // (2011) ...
  • Со склонов Кокурико / From Up on Poppy Hill (2011) [HDRip, Профессиональная ...
  • Tank Feat. T.I. & Kris Stephens / Compliments [2012, RnB,Hip-Hop, HDRip]
  • Неделя в NBA с В.Гомельским / НТВ+ [28.06.2011, SD, XviD, RU, SAT]
  • Чемпионат Англии 2011-12 / 32-й тур / Обзор тура / Спорт 1 [Футбол, 10.04.2 ...
  • Чемпионат Англии 2011-12 / 35 тур / Манчестер Юнайтед - Эвертон / Спорт 1 [ ...
  • Чемпионат Англии 2011-2012 / Championship / 45-й Тур / Обзор Матчей / НТВ+ ...
  • Чемпионат Европы 2012 / Группа B / 1-й тур / Германия - Португалия / Спорт ...
  • NBA Finals 2012 / Sportscenter / В преддверии 3-ей игры / Viasat Sport [Бас ...
  • NBA Finals 2012 / Sportscenter / Четвертая игра под микроскопом / Viasat Sp ...
  • Товарищеский матч 2012 / АмаЗулу (ЮАР) - Манчестер Юнайтед (Англия) / MU TV ...
  • Чемпионат России 2012-13 / 1-й тур / Мордовия - Локомотив / НТВ+ [Футбол, 2 ...
  • Олимпиада 2012 / Женщины, Мужчины / Плавание / Квалификация / НТВ+ [30.07.2 ...
  • Информация
    Посетители, находящиеся в группе Гости, не могут оставлять комментарии к данной публикации.