вход на сайт

Имя пользователя :
Пароль :

Восстановление пароля Регистрация
Многоцветье / Colorful (2010) [BDRip [HWP], любительский (двухголосый) + оригинал, софтсаб]
Рейтинг:
(голосов: 1)



[img]{THEME}/images/logopost.png[/img]



Многоцветье / Colorful

Год выпуска: 2010
Страна: Япония
Производство студии: Ascension
Жанр: Драма, Фентези, Аниме

Режиссёр: Хара Кэйити
Автор оригинала: Мори Это

Озвучка: Любительская (двуxголосая, Онитян & NikaLenina) + оригинал
Хардсаб: без хардсаба
Софтсаб: есть (внешний, русский)

Описание: Он неважно жил и плохо умер, совершив тяжкий грех. Но пути Небес неисповедимы – ему дали шанс временно вселиться в тело мальчика-самоубийцы и сотворить хоть что-то хорошее, частично искупить вину и улучшить карму. Теперь он – 14-летний Макото Кобаяси, живущий с отцом, матерью и старшим братом, типичный подросток в возрасте бунта и непонимания. Небесный куратор по имени Пурапура доходчиво разъяснил, зачем его вернули с порога Небытия – надо раскаяться, вспомнить прошлые ошибки, а по ходу дела вправить мозги Макото, чтобы не думал впредь глотать таблетки. Задачи ясны? А дальше сам!

Почему люди не могут жить в согласии, лгут, озлобляются, творят вещи, немыслимые даже для диких зверей? До пропащей души в теле мальчика постепенно стал доходить ответ – потому что все мы разные, а лень, страх или предрассудки не дают понять друг друга. Многоцветье людей, характеров, мнений – это прекрасно, именно так устроена жизнь. Кто способен принять многоцветье и стать его частью – тот и есть настоящий живой человек. А остальное расскажет сам фильм!

Качество: BDRip [HWP]
Продолжительность: 02:06:29

Формат: AVI
Видео кодек: XviD
Аудио кодек: AC3
Свойства видео: XviD, 720х400, 23.976 fps, ~1538 kbps
Свойства аудио: AC3, 48 kHz, 640 kbps, 6 chnls - любительский (русский, двухголосый)
Свойства аудио: AC3, 48 kHz, 640 kbps, 6 chnls - (японский, оригинал)

Media Info:
▼TextОбщее
Формат : AVI
Формат/Информация : Audio Video Interleave
Профиль формата : OpenDML
Размер файла : 2,50 Гбайт
Продолжительность : 2 ч. 6 м.
Общий поток : 2835 Кбит/сек
Программа кодирования : VirtualDubMod 1.5.10.2 (build 2540/release)
Библиотека кодирования : VirtualDubMod build 2540/release
Видео
Идентификатор : 0
Формат : MPEG-4 Visual
Профиль формата : Advanced [email protected]
Параметр BVOP формата : 3
Параметр QPel формата : Нет
Параметр GMC формата : 3 точки перехода
Параметр матрицы формата : Default (H.263)
Идентификатор кодека : XVID
Идентификатор кодека/Подсказка : XviD
Продолжительность : 2 ч. 6 м.
Битрейт : 1538 Кбит/сек
Ширина : 720 пикс.
Высота : 400 пикс.
Соотношение сторон : 16:9
Частота кадров : 23,976 кадр/сек
Цветовое пространство : YUV
Подвыборка цветности : 4:2:0
Битовая глубина : 8 бит
Тип развёртки : Прогрессивная
Метод сжатия : С потерями
Бит/(Пиксели*Кадры) : 0.223
Размер потока : 1,36 Гбайт (54%)
Библиотека кодирования : XviD 63
Аудио #1
Идентификатор : 1
Формат : AC-3
Формат/Информация : Audio Coding 3
Расширение режима : CM (complete main)
Идентификатор кодека : 2000
Продолжительность : 2 ч. 6 м.
Вид битрейта : Постоянный
Битрейт : 640 Кбит/сек
Канал(ы) : 6 канала(ов)
Расположение каналов : Front: L C R, Side: L R, LFE
Частота : 48,0 КГц
Битовая глубина : 16 бит
Метод сжатия : С потерями
Размер потока : 579 Мбайт (23%)
Выравнивание : Разделение по промежуткам
Продолжительность промежутка : 42 мс. (1,00 видеокадр)
Время предзагрузки промежутка : 500 ms
Аудио #2
Идентификатор : 2
Формат : AC-3
Формат/Информация : Audio Coding 3
Расширение режима : CM (complete main)
Идентификатор кодека : 2000
Продолжительность : 2 ч. 6 м.
Вид битрейта : Постоянный
Битрейт : 640 Кбит/сек
Канал(ы) : 6 канала(ов)
Расположение каналов : Front: L C R, Side: L R, LFE
Частота : 48,0 КГц
Битовая глубина : 16 бит
Метод сжатия : С потерями
Размер потока : 579 Мбайт (23%)
Выравнивание : Разделение по промежуткам
Продолжительность промежутка : 42 мс. (1,00 видеокадр)
Время предзагрузки промежутка : 500 ms


73cb2343f0bc177beb91dc3fce808506339afcf8Многоцветье / Colorful (2010) [BDRip [HWP], любительский (двухголосый) + оригинал, софтсаб] Многоцветье / Colorful (2010) [BDRip [HWP], любительский (двухголосый) + оригинал, софтсаб] " />

Аплоадер: Админ, дата: 14-03-2012, 16:28, торрент скачан: 359 раз

Понравилась раздача? Посмотрите эти:
  • Бойфренд из будущего / About Time (Ричард Кёртис, Фантастика, драма, комеди ...
  • Одноклассники 2 / Grown Ups 2 (Деннис Дуган, Комедия, 2013) [BDRip, Професс ...
  • Паприка / Paprika // Фильм 1, эпизод 1 (из 1) (2006) [BDRip, профессиональн ...
  • Кровью и потом: Анаболики / Pain & Gain (Майкл Бэй, криминал, комедия, трил ...
  • Миллион для чайников / The Brass Teapot (Рамаа Мосли, Фэнтези, триллер, ком ...
  • Жил-был тигр / Ek Tha Tiger (Кабир Кхан, боевик, триллер , 2012) [ HDRip, ...
  • Легенда о МорДу / The Legend of MorDu (Брайан Ларсен, Короткометражный, ска ...
  • Глядя на полумесяц / Hanbun no Tsuki ga Noboru Sora // Сезон 1, Эпизоды с 1 ...
  • Путешествие на дно моря / Voyage to the Bottom of the Sea (Ирвин Аллен / I ...
  • Кажется, я люблю свою жену / I Think I Love My Wife (Крис Рок, Драма, мелод ...
  • Бог любви / God of Love (Люк Мэзени, Короткометражка, фэнтези, комедия, мел ...
  • Боец из трущоб / Gutter King (Кейт Алан Моррис / Keith Alan Morris, боевик, ...
  • Черная Маска / Black Mask (Дэниэл Ли, фантастика, боевик, триллер, комедия, ...
  • Детский душ / Baby Shower (Pablo Illanes, Ужасы, 2011) [DVDRip, Любительски ...
  • Многоцветье / Colorful (2010) [BDRip 720p, оригинал, софтсаб]
  • Многоцветье / Colorful (2010) [BDRip 720p, любительский (двухголосый) + ори ...
  • Челюсти 3D / Shark Night 3D (Дэвид Р. Эллис, ужасы, триллер, 2011) [HDRip, ...
  • Ловцы забытых голосов / Hoshi wo Ou Kodomo (2011) [HDRip, любительский (одн ...
  • Приключения Тинтина: Тайна Единорога / The Adventures of Tintin (Стивен Спи ...
  • Грэйс / Grace (Паул Солет, ужасы, триллер, драма, 2009) [BDRip, Профессиона ...
  • Гениальный папа / Father of Invention (Трент Купер, Драма, комедия, 2010) [ ...
  • Жизнь за гранью / After.Life (Агнешка Войтович-Восло, Ужасы, триллер, драм ...
  • Глаз шторма / The Eye of the Storm (Фред Скеписи, Драма, 2011) [HDRip, Проф ...
  • Шаг вперед 4 / Step Up Revolution (Скотт Спир, Драма, мелодрама, музыка, 20 ...
  • Сдохни, Джон Такер / John Tucker Must Die (Бетти Томас, мелодрама, комедия, ...
  • Информация
    Посетители, находящиеся в группе Гости, не могут оставлять комментарии к данной публикации.