вход на сайт

Имя пользователя :
Пароль :

Восстановление пароля Регистрация
Ловцы забытых голосов / Hoshi wo Ou Kodomo (2011) [HDRip, любительский (одноголосый, закадровый) + оригинал]
Рейтинг:
(голосов: 1)



[img]{THEME}/images/logopost.png[/img]



«Ловцы забытых голосов / Hoshi wo Ou Kodomo»

«Путешествие за единственным «Прощай»

Год выпуска: 2011
Страна: Япония
Производство: CoMix Wave Inc.
Жанр: аниме, мультфильм, драма, приключения

Режиссёр: Макото Синкай
Автор оригинала: Макото Синкай

Озвучка: Любительский (одноголосный, закадровый) + оригинал
Хардсаб: без хардсаба
Софтсаб:нет

Описание

Асуна - школьница, которая очень рано потеряла отца и теперь живет с мамой. Дома большую часть времени она проводит сама, так как мама работает в госпитале на ночных сменах. В школе у нее очень хорошая успеваемость, но друзей не так уж и много. Вечера она проводит на склоне холма, слушая старое радио с помощью кристалла, который достался ей в память о папе. Однажды по дороге на холм на нее нападает огромное создание, от которого ее спасает юноша по имени Шун. Через несколько дней Асуна узнает что он погиб, и отправляется в его мир чтобы вновь встретиться со своим другом.

» IMDB-рейтинг:7.20 (270)

» КиноПоиск-рейтинг:7.419 (281)

Доп. информация
Премьеры ▼премьера (мир)7 мая 2011
премьера (РФ)17 ноября 2011, «Реанимедиа»
релиз на DVD 25 марта 2012, «Reanimedia»
Mediainfo ▼TextОбщее
Полное имя : D:DownloadsЛовцы забытых голосов.2011.L.HDRip.avi
Формат : AVI
Формат/Информация : Audio Video Interleave
Размер файла : 1,62 Гбайт
Продолжительность : 1 ч. 55 м.
Общий поток : 1995 Кбит/сек
Название фильма : Hoshi wo Ou Kodomo
Программа кодирования : VirtualDubMod 1.5.10.2 (build 2540/release)
Библиотека кодирования : VirtualDubMod build 2540/release

Видео
Идентификатор : 0
Формат : MPEG-4 Visual
Профиль формата : [email protected]
Параметр BVOP формата : Нет
Параметр QPel формата : Нет
Параметр GMC формата : Без точки перехода
Параметр матрицы формата : Default (H.263)
Идентификатор кодека : XVID
Идентификатор кодека/Подсказка : XviD
Продолжительность : 1 ч. 55 м.
Битрейт : 1597 Кбит/сек
Ширина : 704 пикселя
Высота : 392 пикселя
Соотношение сторон : 16:9
Частота кадров : 23,976 кадра/сек
Цветовое пространство : YUV
Субдискретизация насыщенности : 4:2:0
Битовая глубина : 8 бит
Тип развёртки : Прогрессивная
Метод сжатия : С потерями
Бит/(Пиксели*Кадры) : 0.241
Размер потока : 1,29 Гбайт (80%)
Библиотека кодирования : XviD 63

Аудио #1
Идентификатор : 1
Формат : MPEG Audio
Версия формата : Version 1
Профиль формата : Layer 3
Режим : Joint stereo
Идентификатор кодека : 55
Идентификатор кодека/Подсказка : MP3
Продолжительность : 1 ч. 55 м.
Вид битрейта : Постоянный
Битрейт : 192 Кбит/сек
Каналы : 2 канала
Частота : 48,0 КГц
Метод сжатия : С потерями
Размер потока : 159 Мбайт (10%)
Выравнивание : Соединение по промежуткам
Продолжительность промежутка : 42 мс. (1,00 видеокадр)
Время предзагрузки промежутка : 504 мс.

Аудио #2
Идентификатор : 2
Формат : MPEG Audio
Версия формата : Version 1
Профиль формата : Layer 3
Режим : Joint stereo
Расширение режима : MS Stereo
Идентификатор кодека : 55
Идентификатор кодека/Подсказка : MP3
Продолжительность : 1 ч. 55 м.
Вид битрейта : Постоянный
Битрейт : 192 Кбит/сек
Каналы : 2 канала
Частота : 48,0 КГц
Метод сжатия : С потерями
Размер потока : 159 Мбайт (10%)
Выравнивание : Разделение по промежуткам
Продолжительность промежутка : 42 мс. (1,00 видеокадр)
Время предзагрузки промежутка : 500 мс.
Библиотека кодирования : LAME3.98.2ЄЄЄЄЄЄЄЄЄЄ


Тех. данные
Качество: ~ HDRip ~
Продолжительность: 01:55:59 часа

Формат: AVI
Видео кодек: XviD
Аудио кодек: MP3
Свойство Видео: 704x392 (1.80:1), 23.976 fps, XviD build 63 ~1597 kbps avg, 0.24 bit/pixel
Свойство Аудио: 48 kHz, MPEG Layer 3, 2 ch, ~192.00 kbps avgРусский
Свойство Аудио: 448 kHz, MPEG Layer 3, 2 ch, ~192.00 kbps avgЯпонский



cтол заказов | пожелания | стол заказов по рипам


ce7024f6ad0a4145bb85fa1c21a49ca6647dfb99Ловцы забытых голосов / Hoshi wo Ou Kodomo (2011) [HDRip, любительский (одноголосый, закадровый) + оригинал] Ловцы забытых голосов / Hoshi wo Ou Kodomo (2011) [HDRip, любительский (одноголосый, закадровый) + оригинал] " />

Аплоадер: Админ, дата: 27-12-2011, 11:31, торрент скачан: 359 раз

Понравилась раздача? Посмотрите эти:
  • Жил-был тигр / Ek Tha Tiger (Кабир Кхан, боевик, триллер , 2012) [ HDRip, ...
  • Злые птицы: Хэллоуин / Angry Birds: HamOWeen (Джей Ройвайнен, Мультфильм, к ...
  • Ловцы забытых голосов / Hoshi wo ou Kodomo / Children Who Chase Lost Voices ...
  • Ловцы забытых голосов / Hoshi wo ou Kodomo / Children Who Chase Lost Voices ...
  • Вечерний Ургант // Сезон 2. Выпуск 56 (ТВ-шоу, 11.12.2012) [SATRip, Не треб ...
  • Бог любви / God of Love (Люк Мэзени, Короткометражка, фэнтези, комедия, мел ...
  • Любовь по расписанию / Поезд (Сергей Мезенцев, мелодрама, 2012) [HDTVRip, Н ...
  • Вечерний Ургант // Сезон 2. Выпуск 62 (ТВ-шоу, 19.12.2012) [SATRip, Не треб ...
  • Вечерний Ургант // Сезон 2. Выпуск 63 (ТВ-шоу, 20.12.2012) [SATRip, Не треб ...
  • Кейси Джонс / Casey Jones (Иларион Бэнкс, Короткометражка, фэнтези, боевик, ...
  • Заместитель / Il supplente (Андреа Жублин, Короткометражка, комедия, 2007) ...
  • Вечерний Ургант // Сезон 2. Выпуск 64 (ТВ-шоу, 21.12.2012) [SATRip, Не треб ...
  • Вечерний Ургант // Сезон 2. Выпуск 66 (ТВ-шоу, 25.12.2012) [SATRip, Не треб ...
  • Вечерний Ургант // Сезон 2. Выпуск 68 (ТВ-шоу, 27.12.2012) [SATRip, Не треб ...
  • Дорога на... / Road to (Таисия Игуменцева, Комедия, короткометражный, 2011) ...
  • Покорить высоту / Take It to the Limit (Сэм Кит / Sam Kieth, семейный, 2000 ...
  • Светлячок. Воссоединение Коричневых плащей к 10 годовщине / Firefly 10th An ...
  • А что насчет тебя? / How About You (Энтони Бирн, Драма, комедия, 2007) [DVD ...
  • Детский душ / Baby Shower (Pablo Illanes, Ужасы, 2011) [DVDRip, Любительски ...
  • В лесу / The Forest (Шан Серафин, ужасы, триллер , 2011) [SATRip, Профессио ...
  • Ловцы забытых голосов / Hoshi wo ou Kodomo / Children Who Chase Lost Voices ...
  • Ловцы забытых голосов / Hoshi wo Ou Kodomo (2011) [DVDRip, любительская (мн ...
  • Развод по-русски. Выпуск №78. Трагедии звездных семей (Документальный,телеп ...
  • Глаз шторма / The Eye of the Storm (Фред Скеписи, Драма, 2011) [HDRip, Проф ...
  • Бюро находок : Потерянный и найденный / Lost and Found (Филип Хант, коротко ...
  • Информация
    Посетители, находящиеся в группе Гости, не могут оставлять комментарии к данной публикации.