вход на сайт

Имя пользователя :
Пароль :

Восстановление пароля Регистрация
[iPhone, iPod, iPad] Живая сталь / Real Steel (Шон Леви, фантастика, 2011) [640x352] [HDRip, Профессиональный (полное дублирование)]
Рейтинг:
(голосов: 1)



[img]{THEME}/images/logopost.png[/img]



Живая сталь / Real Steel

Страна: США, Индия
Производство: 21 Laps Entertainment, Angry Films, DreamWorks SKG, ImageMovers, Reliance Entertainment, Touchstone Pictures
Год выпуска: 2011
Жанр: фантастика, боевик, семейный
Режиссёр: Шон Леви
В ролях: Хью Джекман, Дакота Гойо, Эванджелин Лилли, Энтони Маки, Кевин Дюран, Хоуп Дэвис, Джеймс Ребхорн, Марко Руджери, Карл Йун, Ольга Фонда
Поддерживаемые устройства: iPhone 3G, iPhone 3GS, iPhone 4, iPod touch (3/4 поколения), iPad, iPad 2.

Перевод: Профессиональный (полное дублирование)

Описание: События фильма происходят в будущем, где бокс запрещен за негуманностью и заменен боями 2000-фунтовых роботов, управляемых людьми. Бывший боксер, а теперь промоутер, переметнувшийся в Робобокс, решает, что наконец нашел своего чемпиона, когда ему попадается выбракованный, но очень способный робот. Одновременно на жизненном пути героя возникает 11-летний пацан, оказывающийся его сыном. И по мере того, как машина пробивает свой путь к вершине, обретшие друг друга отец и сын учатся дружить.



Качество: HDRip
Продолжительность: 2:06:50 час.

Формат: MP4
Разрешение экрана: 640x352
Видео кодек: H.264
Аудио кодек: AAC
Свойства видео: 640x352, 23.976 fps, 1789 kbps, 0.331 bit/pixel
Свойства аудио: 44.1 kHz, 2 ch, 152 kbps
"MediaInfo" ▼Text
General
Complete name : D:Все что надоФильмыZhivaja.stal.2011.D.HDRip.mp4
Format : MPEG-4
Codec ID : M4V
File size : 1.72 GiB
Duration : 2h 6mn
Overall bit rate : 1 945 Kbps
Writing application : Lavf52.34.0
Video #1
ID : 1
Format : MPEG-4 Visual
Format profile : [email protected]
Format settings, BVOP : No
Format settings, QPel : No
Format settings, GMC : No warppoints
Format settings, Matrix : Default (H.263)
Codec ID : 20
Duration : 2h 6mn
Bit rate mode : Variable
Bit rate : 1 789 Kbps
Width : 640 pixels
Height : 352 pixels
Display aspect ratio : 16:9
Original display aspect ratio : 2.35:1
Frame rate mode : Constant
Frame rate : 23.976 fps
Color space : YUV
Chroma subsampling : 4:2:0
Bit depth : 8 bits
Scan type : Progressive
Compression mode : Lossy
Bits/(Pixel*Frame) : 0.331
Stream size : 1.58 GiB (92%)
Writing library : Lavc52.30.1
Audio #2
ID : 2
Format : AAC
Format/Info : Advanced Audio Codec
Format profile : LC
Codec ID : 40
Duration : 2h 6mn
Bit rate mode : Variable
Bit rate : 152 Kbps
Channel(s) : 2 channels
Channel positions : Front: L R
Sampling rate : 44.1 KHz
Compression mode : Lossy
Stream size : 138 MiB (8%)



ee8021fc053aa6a06fab023979907352f287ad1d[iPhone, iPod, iPad] Живая сталь / Real Steel (Шон Леви, фантастика, 2011) [640x352] [HDRip, Профессиональный (полное дублирование)] [iPhone, iPod, iPad] Живая сталь / Real Steel (Шон Леви, фантастика, 2011) [640x352] [HDRip, Профессиональный (полное дублирование)] " />

Аплоадер: Админ, дата: 24-01-2012, 13:48, торрент скачан: 359 раз

Понравилась раздача? Посмотрите эти:
  • Верное дельце / Une pure affaire (Александр Коффре, Боевик, Комедия, Кримин ...
  • Звук моего голоса / Sound of My Voice (Зал Батманглидж, триллер, драма, 201 ...
  • Живая сталь / Real Steel (Шон Леви, Фантастика, 2011) [HDRip - AVC, Дубляж ...
  • Живая сталь / Real Steel (Шон Леви, фантастика, боевик, семейный, 2011) [BD ...
  • Живая сталь / Real Steel (Шон Леви, фантастика, боевик, семейный, 2011) [AC ...
  • Живая сталь / Real Steel (Шон Леви, фантастика, боевик, семейный, 2011) [BD ...
  • Живая сталь / Real Steel (Шон Леви, фантастика, боевик, семейный, 2011) [BD ...
  • Живая сталь / Real Steel (Шон Леви, фантастика, боевик, семейный, 2011) [BD ...
  • Живая сталь / Real Steel (Шон Леви, фантастика, боевик, семейный, 2011) [BD ...
  • Живая сталь / Real Steel (Шон Леви, фантастика, боевик, семейный, 2011) [Bl ...
  • Живая сталь / Real Steel (Шон Леви, фантастика, боевик, семейный, 2011) [BD ...
  • Живая сталь / Real Steel (Шон Леви, фантастика, боевик, семейный, 2011) [BD ...
  • Живая сталь / Real Steel (Шон Леви, фантастика, боевик, семейный, 2011) [BD ...
  • Живая сталь / Real Steel (Шон Леви, фантастика, боевик, семейный, 2011) [BD ...
  • Tank Feat. T.I. & Kris Stephens / Compliments [2012, RnB,Hip-Hop, HDRip]
  • Machete / Нежность [2011, R&B, HDRip]
  • [iPhone, iPod, iPad] Древо жизни / The Tree of Life(Терренс Малик, драма, ...
  • Живая сталь / Real Steel (Шон Леви, фантастика, боевик, семейный, 2011) [64 ...
  • [iPhone, iPod, iPad] Погоня / Abduction (Джон Синглтон, боевик, 2011) [640x ...
  • Живая сталь / Real Steel (Шон Леви, фантастика, боевик, 2011) [BDRip, Дубли ...
  • Живая сталь / Real Steel (Шон Леви, фантастика, боевик, семейный, 2011) [BD ...
  • Lana Del Rey / Born To Die [2011, Indie Pop, HDRip]
  • Real Steel / Живая Сталь - официальная игра по фильму (2012) [iPhone, iPad ...
  • Замёрзший мир / 2012: Ice Age (Трэвис Форт, фантастика, боевик, 2011) [HDRi ...
  • Супершторм в Сиэтле / Seattle Superstorm (Джейсон Бурк, фантастика, боевик ...
  • Информация
    Посетители, находящиеся в группе Гости, не могут оставлять комментарии к данной публикации.