вход на сайт

Имя пользователя :
Пароль :

Восстановление пароля Регистрация
[iPhone, iPod, iPad] Погоня / Abduction (Джон Синглтон, боевик, 2011) [640x352] [HDRip , Профессиональный (полное дублирование)]
Рейтинг:
(голосов: 1)



[img]{THEME}/images/logopost.png[/img]



Погоня / Abduction

Страна: США
Производство: Gotham Group The, Lionsgate
Год выпуска: 2011
Жанр: боевик, триллер, драма, детектив
Режиссёр: Джон Синглтон
В ролях: Тэйлор Лотнер, Лили Коллинз, Джейсон Айзекс, Альфред Молина, Сигурни Уивер, Мария Белло, Антоник Смит, Микаэл Нюквист, Дэнзел Уитакер, Джейк Андолина
Поддерживаемые устройства: iPhone 3G, iPhone 3GS, iPhone 4, iPod touch (3/4 поколения), iPad, iPad 2.

Перевод: Профессиональный (полное дублирование)

Описание: Главный герой в один прекрасный день обнаруживает на сайте по розыску пропавших детей собственное фото. Отойдя от шока, он понимает, что родители похитили его и вырастили как собственного ребенка. Юноша начинает расследование, которое, в итоге, превращается в цепь жестоких и местами смертельно опасных событий.



Качество: HDRip
Продолжительность: 1:45:59 час.

Формат: MP4
Разрешение экрана: 640x352
Видео кодек: H.264
Аудио кодек: AAC
Свойства видео: 640x352, 23.976 fps, 1385 kbps, 0.256 bit/pixel
Свойства аудио: 44.1 kHz, 2 ch, 152 kbps
"MI" ▼Text
General
Complete name : D:Все что надоФильмыPogonya.2011.HDRip..mp4
Format : MPEG-4
Codec ID : M4V
File size : 1.14 GiB
Duration : 1h 45mn
Overall bit rate : 1 540 Kbps
Writing application : Lavf52.34.0
Video #1
ID : 1
Format : MPEG-4 Visual
Format profile : [email protected]
Format settings, BVOP : No
Format settings, QPel : No
Format settings, GMC : No warppoints
Format settings, Matrix : Default (H.263)
Codec ID : 20
Duration : 1h 45mn
Bit rate mode : Variable
Bit rate : 1 385 Kbps
Width : 640 pixels
Height : 352 pixels
Display aspect ratio : 16:9
Original display aspect ratio : 2.35:1
Frame rate mode : Constant
Frame rate : 23.976 fps
Color space : YUV
Chroma subsampling : 4:2:0
Bit depth : 8 bits
Scan type : Progressive
Compression mode : Lossy
Bits/(Pixel*Frame) : 0.256
Stream size : 1.03 GiB (90%)
Writing library : Lavc52.30.1
Audio #2
ID : 2
Format : AAC
Format/Info : Advanced Audio Codec
Format profile : LC
Codec ID : 40
Duration : 1h 45mn
Bit rate mode : Variable
Bit rate : 151 Kbps
Channel(s) : 2 channels
Channel positions : Front: L R
Sampling rate : 44.1 KHz
Compression mode : Lossy
Stream size : 115 MiB (10%)


6d3474de71c5d119f7962a44553368555d7f0e8b[iPhone, iPod, iPad] Погоня / Abduction (Джон Синглтон, боевик, 2011) [640x352] [HDRip , Профессиональный (полное дублирование)] [iPhone, iPod, iPad] Погоня / Abduction (Джон Синглтон, боевик, 2011) [640x352] [HDRip , Профессиональный (полное дублирование)] " />

Аплоадер: Админ, дата: 22-01-2012, 19:11, торрент скачан: 359 раз

Понравилась раздача? Посмотрите эти:
  • Inna / More Than Friends [2013, Pop, Master]
  • Верное дельце / Une pure affaire (Александр Коффре, Боевик, Комедия, Кримин ...
  • Звук моего голоса / Sound of My Voice (Зал Батманглидж, триллер, драма, 201 ...
  • Погоня / Abduction (Джон Синглтон, боевик, триллер, драма, детектив, 2011) ...
  • NHL 12/13 / Stanley Cup Playoffs / East / Semifinals / Game 1 / Ottawa Sena ...
  • NHL 12/13 / Stanley Cup Playoffs / East / Semifinals / Game 1 / New York Ra ...
  • Мужчина нарасхват / Playing for Keeps (Габриэле Муччино, Мелодрама, комедия ...
  • Тюремщик / Screwed (Рег Тревисс / Reg Traviss, Драма, 2011) [DVDRip , Люби ...
  • Погоня / Abduction (Джон Синглтон, боевик, триллер, драма, детектив, 2011) ...
  • Погоня / Abduction (Джон Синглтон, Боевик, 2011) [BDRip - AVC, Дубляж + Ори ...
  • Захват / Carjacked (Джон Бонито, триллер, 2011)[BDRip, Профессиональный (мн ...
  • Погоня / Abduction (Джон Синглтон, боевик, триллер, драма, детектив,2011) [ ...
  • Погоня / Abduction (Джон Синглтон, боевик, триллер, драма, детектив,2011) [ ...
  • Tank Feat. T.I. & Kris Stephens / Compliments [2012, RnB,Hip-Hop, HDRip]
  • Погоня / Abduction (Джон Синглтон, боевик, триллер, драма, детектив, 2011) ...
  • Machete / Нежность [2011, R&B, HDRip]
  • Погоня / Abduction (Джон Синглтон, боевик, триллер, драма, детектив, 2011) ...
  • Погоня / Abduction (Джон Синглтон, боевик, триллер, драма, детектив, 2011) ...
  • [iPhone, iPod, iPad] Древо жизни / The Tree of Life(Терренс Малик, драма, ...
  • Погоня / Abduction (Джон Синглтон, боевик, триллер, драма, детектив, 2011г) ...
  • Погоня / Abduction (Джон Синглтон, боевик, триллер, драма, детектив, 2011) ...
  • [iPhone, iPod, iPad] Живая сталь / Real Steel (Шон Леви, фантастика, 2011) ...
  • Lana Del Rey / Born To Die [2011, Indie Pop, HDRip]
  • Замёрзший мир / 2012: Ice Age (Трэвис Форт, фантастика, боевик, 2011) [HDRi ...
  • Супершторм в Сиэтле / Seattle Superstorm (Джейсон Бурк, фантастика, боевик ...
  • Информация
    Посетители, находящиеся в группе Гости, не могут оставлять комментарии к данной публикации.