вход на сайт

Имя пользователя :
Пароль :

Восстановление пароля Регистрация
[iPhone, iPod, iPad] Древо жизни / The Tree of Life(Терренс Малик, драма, 2011) [640x352] [BDRip, Профессиональный (полное дублирование)]
Рейтинг:
(голосов: 1)



[img]{THEME}/images/logopost.png[/img]



Древо жизни / The Tree of Life

Страна: США
Производство: Cottonwood Pictures, Plan B Entertainment, River Road Entertainment
Год выпуска: 2011
Жанр: драма
Режиссёр: Терренс Малик
В ролях: Брэд Питт, Шон Пенн, Джессика Честейн, Хантер МакКракен, Ларами Эпплер, Ти Шеридан, Фиона Шоу, Джессика Фусельер, Николас Гонда, Уилл Уоллес
Поддерживаемые устройства: iPhone 3G, iPhone 3GS, iPhone 4, iPod touch (3/4 поколения), iPad, iPad 2.

Перевод: Профессиональный (полное дублирование)

Описание: Мы наблюдаем за развитием 11-летнего Джека, одного из трех братьев. Поначалу ребенку все кажется чудесным. Глазами своей души он наблюдает за поступками мамы. Она представляет собой любовь и милосердие, в то время как отец пытается научить сына, что в реальном мире на первое место необходимо всегда ставить себя. Каждый родитель старается переманить Джека на свою сторону, и он должен примириться с их притязаниями. Действительность становится мрачнее, когда главному герою в первый раз приходится столкнуться с болью, страданиями и смертью. Некогда абсолютно ясный мир превращается в лабиринт.



Качество: BDRip
Продолжительность: 2:18:54 час.

Формат: MP4
Разрешение экрана: 640x352
Видео кодек: H.264
Аудио кодек: AAC
Свойства видео: 640x352, 23.976 fps, 1804 kbps, 0.334 bit/pixel
Свойства аудио: 44.1 kHz, 2 ch, 152 kbps
"MediaInfo" ▼TextD:Все что надоФильмыDrevo.Zhizni.2011BDRip..mp4
General
Complete name : D:Все что надоФильмыШефуDrevo.Zhizni.2011BDRip..mp4
Format : MPEG-4
Codec ID : M4V
File size : 1.90 GiB
Duration : 2h 18mn
Overall bit rate : 1 960 Kbps
Writing application : Lavf52.34.0
Video #1
ID : 1
Format : MPEG-4 Visual
Format profile : [email protected]
Format settings, BVOP : No
Format settings, QPel : No
Format settings, GMC : No warppoints
Format settings, Matrix : Default (H.263)
Codec ID : 20
Duration : 2h 18mn
Bit rate mode : Variable
Bit rate : 1 804 Kbps
Width : 640 pixels
Height : 352 pixels
Display aspect ratio : 16:9
Original display aspect ratio : 16:9
Frame rate mode : Constant
Frame rate : 23.976 fps
Color space : YUV
Chroma subsampling : 4:2:0
Bit depth : 8 bits
Scan type : Progressive
Compression mode : Lossy
Bits/(Pixel*Frame) : 0.334
Stream size : 1.75 GiB (92%)
Writing library : Lavc52.30.1
Audio #2
ID : 2
Format : AAC
Format/Info : Advanced Audio Codec
Format profile : LC
Codec ID : 40
Duration : 2h 18mn
Bit rate mode : Variable
Bit rate : 152 Kbps
Channel(s) : 2 channels
Channel positions : Front: L R
Sampling rate : 44.1 KHz
Compression mode : Lossy
Stream size : 151 MiB (8%)



7010842af5678618648783cbacca9c7700a19131 [iPhone, iPod, iPad] Древо жизни / The Tree of Life(Терренс Малик, драма, 2011) [640x352] [BDRip, Профессиональный (полное дублирование)] [iPhone, iPod, iPad] Древо жизни / The Tree of Life(Терренс Малик, драма, 2011) [640x352] [BDRip, Профессиональный (полное дублирование)] " />

Аплоадер: Админ, дата: 9-01-2012, 01:16, торрент скачан: 359 раз

Понравилась раздача? Посмотрите эти:
  • Мужество / Wymyk (Грег Зглински, драма, 2011) [DVDRip, Любительский (одного ...
  • Древо жизни / The Tree of Life (Терренс Малик, Фэнтези, драма, 2010) [BDRip ...
  • 23:59 / 23:59 (Гилберт Чан, Ужасы, 2011) [HDRip, Любительский (одноголосый ...
  • NBA Playoffs 2013 / Highlights Playoff Edition [Баскетбол, 06.05.2013, WEB ...
  • NBA Playoffs 2013 / Highlights Playoff Edition [Баскетбол, 10.05.2013, WEB ...
  • Мужчина нарасхват / Playing for Keeps (Габриэле Муччино, Мелодрама, комедия ...
  • Экипаж / Flight (Роберт Земекис, Драма, 2012) [BDRip, Профессиональный (пол ...
  • Древо жизни / The Tree of Life (Терренс Малик, драма, 2011) [BDRip-AVC, Про ...
  • Древо жизни / The Tree of Life (Терренс Малик, драма, 2011) [HDRip-AVC, Пр ...
  • Древо жизни / The Tree of Life (Терренс Малик / Terrence Malick, драма, 201 ...
  • Древо жизни / The Tree of Life (Терренс Малик, драма, 2011) [BDRip 1080p, п ...
  • Tank Feat. T.I. & Kris Stephens / Compliments [2012, RnB,Hip-Hop, HDRip]
  • Machete / Нежность [2011, R&B, HDRip]
  • Древо жизни / The Tree of Life (Терренс Малик, драма, 2011) [HDRip, Професс ...
  • Древо жизни / The Tree of Life (Терренс Малик, драма, 2011) [BDRip, Дубляж ...
  • Древо жизни / The Tree of Life (Терренс Малик, драма, 2011) [BDRip , Профес ...
  • Древо жизни / The Tree of Life (Терренс Малик, драма, 2011) [HDRip, Професс ...
  • [iPhone, iPod, iPad] Погоня / Abduction (Джон Синглтон, боевик, 2011) [640x ...
  • [iPhone, iPod, iPad] Живая сталь / Real Steel (Шон Леви, фантастика, 2011) ...
  • Древо жизни / The Tree of Life (Терренс Малик, драма, фантастика, 2011) [BD ...
  • Информация
    Посетители, находящиеся в группе Гости, не могут оставлять комментарии к данной публикации.