вход на сайт

Имя пользователя :
Пароль :

Восстановление пароля Регистрация
Настоящее кунг-фу / Fat shan chaan sin sang / Real kung-fu // Сезон 1, Эпизоды с 1 по 20 (из 20) (2005) [DVDRip, Любительская (одноголосая)]
Рейтинг:
(голосов: 1)



[img]{THEME}/images/logopost.png[/img]



Настоящее кунг-фу / Fat shan chaan sin sang / Real kung-fu

Сезон 1, Эпизоды с 1 по 20 (из 20)

Год выпуска: 2005
Страна: Гонконг
Жанр: боевик, драма

В ролях: Юэнь Бяо, Юэнь Ва, Мэгги Сиу, Джа Хуи Лью, Хой Сан Ли

Перевод: mantis
Озвучка: Любительская (одноголосая) - mantis
Хардсаб: нет
Софтсаб: нет

Описание: Приключения молодого Лянг Цзяня — искусного повара, занимающегося винг-чунь кунг-фу. У Цзяня есть подружка, на которой он вот-вот должен жениться. Но однажды в их город приезжает боец из Маньчжурии. Он силён и в совершенстве владеет искусством кунг-фу. Никто не может ему противостоять, даже учитель Цзяня был повержен и получил ранения. Цзянь, отправившись на виллу обидчика, чтобы решить с ним все вопросы, находит его мертвым… А в дверь уже стучала полиция… Бежать… Бежать…

Качество: DVDRip
Продолжительность: 1 эпизод - 40 минут

Формат: AVI
Видео кодек: DivX
Аудио кодек: MP3
Свойства видео: 512x384 (1.33:1), 29.970 fps, ~1092 kbps avg, 0.185 bit/pixel
Свойства аудио: 44.100 kHz, 2 ch, 112.00 kbps

"Отчет MediaInfo" ▼TextGeneral
Format : AVI
Format/Info : Audio Video Interleave
File size : 375 MiB
Duration : 43mn 4s
Overall bit rate : 1 216 Kbps
Writing application : VirtualDubMod 1.5.10.1 (build 2366/release)
Writing library : VirtualDubMod build 2366/release
Video #0
ID : 0
Format : MPEG-4 Visual
Format settings, BVOP : 1
Format settings, QPel : No
Format settings, GMC : No warppoints
Format settings, Matrix : Default (H.263)
Muxing mode : Packed bitstream
Codec ID : DX50
Codec ID/Hint : DivX 5
Duration : 43mn 4s
Bit rate : 1 092 Kbps
Width : 512 pixels
Height : 384 pixels
Display aspect ratio : 4:3
Frame rate : 29.970 fps
Color space : YUV
Chroma subsampling : 4:2:0
Bit depth : 8 bits
Scan type : Progressive
Compression mode : Lossy
Bits/(Pixel*Frame) : 0.185
Stream size : 337 MiB (90%)
Writing library : DivX 6.6.1.4
Audio #1
ID : 1
Format : MPEG Audio
Format version : Version 1
Format profile : Layer 3
Mode : Joint stereo
Mode extension : MS Stereo
Codec ID : 55
Codec ID/Hint : MP3
Duration : 43mn 3s
Bit rate mode : Constant
Bit rate : 112 Kbps
Channel(s) : 2 channels
Sampling rate : 44.1 KHz
Compression mode : Lossy
Stream size : 34.5 MiB (9%)
Alignment : Split accross interleaves
Interleave, duration : 33 ms (1.00 video frame)
Interleave, preload duration : 500 ms
Writing library : LAME3.97
Encoding settings : -m j -V 4 -q 2 -lowpass 15.6 -b 112


123ddf08b4a62ddecf5646391ea761f4eb661a9cНастоящее кунг-фу / Fat shan chaan sin sang / Real kung-fu // Сезон 1, Эпизоды с 1 по 20 (из 20) (2005) [DVDRip, Любительская (одноголосая)] Настоящее кунг-фу / Fat shan chaan sin sang / Real kung-fu // Сезон 1, Эпизоды с 1 по 20 (из 20) (2005) [DVDRip, Любительская (одноголосая)] " />

Аплоадер: Админ, дата: 9-02-2013, 20:32, торрент скачан: 359 раз

Понравилась раздача? Посмотрите эти:
  • Акула / Sangeo / Shark // Сезон 1, Эпизоды с 1 по 20 (из 20) (2013) [HDTVRi ...
  • Мужество / Wymyk (Грег Зглински, драма, 2011) [DVDRip, Любительский (одного ...
  • Чемпионат Италии 2012-13 / 36-й тур / Рома — Кьево / НТВ+ [07.05.2013, SD, ...
  • Ариэти из страны лилипутов / Karigurashi no Arrietty / The Secret World of ...
  • Молодежный чемпионат мира 2012 (U-20). Четвертьфинал: Россия - Чехия [02.01 ...
  • Чемпионат Германии 2011-12 / 28-й тур / Боруссия Д - Штутгарт / НТВ+ [Футбо ...
  • Чемпионат Испании 2011-12 / 36-й тур / Реал Мадрид - Севилья / НТВ+ [Футбол ...
  • Чемпионат Европы 2012 / Группа C / 1-й тур / Ирландия — Хорватия / ТРК Футб ...
  • Чемпионат Европы 2012 / Группа D / 1-й тур / Украина - Швеция / Спорт 1 [11 ...
  • Олимпиада 2012 / Мужчины / Группа D / 1-й тур / Испания — Япония / НТВ+ [Фу ...
  • Олимпиада 2012 / Футбол / Мужчины / Группа A / 3-й тур / Великобритания - У ...
  • Tank Feat. T.I. & Kris Stephens / Compliments [2012, RnB,Hip-Hop, HDRip]
  • Дневники разработчиков Nissan GT-R / The GT-R Legend (Хакидо Санир, Докумен ...
  • Чемпионат Англии 2011-12 / 32-й тур / Обзор тура / Спорт 1 [Футбол, 10.04.2 ...
  • Чемпионат Англии 2011-2012 / Championship / 45-й Тур / Обзор Матчей / НТВ+ ...
  • Чемпионат Европы 2012 / Группа B / 1-й тур / Германия - Португалия / Спорт ...
  • NBA Finals 2012 / Sportscenter / В преддверии 3-ей игры / Viasat Sport [Бас ...
  • NBA Finals 2012 / Sportscenter / Четвертая игра под микроскопом / Viasat Sp ...
  • Олимпийский квалификационный турнир 2012 / Венесуэла / Мужчины / Группа C / ...
  • Алхимическое оружие / Busou Renkin // Сезон 1, Эпизоды с 1 по 26 (из 26) (2 ...
  • Товарищеский матч 2012 / АмаЗулу (ЮАР) - Манчестер Юнайтед (Англия) / MU TV ...
  • Чемпионат России 2012-13 / 1-й тур / Мордовия - Локомотив / НТВ+ [Футбол, 2 ...
  • Олимпиада 2012 / Женщины, Мужчины / Плавание / Квалификация / НТВ+ [30.07.2 ...
  • Товарищеский матч / Звёзды Малайзии - Манчестер Сити / ТК Футбол [Футбол, 2 ...
  • Ван Пис / One Piece / Сезон 15, Эпизод 559 (2012) [HDTVRip, любительская (о ...
  • Информация
    Посетители, находящиеся в группе Гости, не могут оставлять комментарии к данной публикации.