вход на сайт

Имя пользователя :
Пароль :

Восстановление пароля Регистрация
Пир богов / Feast of the Gods // Сезон 1, Эпизоды с 1 по 32 (из 32) (2012) [TVRip, оригинал, софтсаб]
Рейтинг:
(голосов: 1)



[img]{THEME}/images/logopost.png[/img]



Пир богов
Feast of the Gods


Сезон 1, Эпизоды с 1 по 32 (из 32)

Год выпуска: 2012
Страна: Южная Корея
Производство студии: MBC
Жанр: романтика, комедия
Режиссёр: Lee Dong Yoon
В ролях:
~ Sung Yu Ri в роли Ко Чжун Ён
~ Joo Sang Wook в роли Чхве Чжэ Ха
~ Lee Sang Woo в роли Ким До Юн
~ Seo Hyun Jin в роли Ха Ин Чжу / Сон Ён У
~ Jun In Hwa в роли Сон До Хи
~ Kim Bo Yun в роли Пэк Соль Хи
~ Jung Hye Sun в роли Сон Но Ин

Перевод: Фансаб-группа Bears
▼Перевод: Alex, Nata, Lyum, Stella_onni, Igirita, Mira, Sayori, Deptulana, Лита
Перевод песен: Narvskaya, Mira
Редакция: Ita-chan, Тигра, Alex

Озвучка: Оригинал
Хардсаб: Нет
Софтсаб: Есть (внешний, русский)

Описание:
Джу Ён - талантливый повар, её совершенный вкус достался в наследство от матери. Несмотря на то, что девушка довольно таки вспыльчива, она всегда относится к окружающим с пониманием. Джу Ён работает поваром в популярном ресторане под названием "Пир Богов". Сон Ён У тоже повар, но ей приходится упорно трудиться, чтобы усовершенствовать свои навыки, а так же она постоянно соревнуется с Джу Ён. Кроме того в дораме присутствует любовный треугольник и тайна происхождения

Качество: TVRip
Продолжительность: 1 эпизод ~ 01:05:00

Формат: AVI
Видео кодек:
~ 1-3, 5-10, 12, 15-16, 18-20, 22-30, 32 серии: XviD
~ 4, 11, 13-14, 17, 21, 31 серии: H264
Аудио кодек: AC3
Свойства видео:
~ 1-3, 5-10, 12, 15-16, 18-20, 22-30, 32 серии: 624x352 (1.77:1), 29.970 fps, XviD MPEG-4 ~1320 kbps avg, 0.20 bit/pixel
~ 4, 11, 13-14, 17, 21, 31 серии: 800x450 (1.78:1), 29.970 fps, H.264/AVC Encoder ~1550 kbps avg, 0.14 bit/pixel
Свойства аудио: 48 kHz, AC3 Dolby Digital, 2/0 (L,R) ch, ~192 kbps

отчет MediaInfo ▼
1 серия ▼Text
Пир БоговПир богов 1.avi
General
Complete name : Пир БоговПир богов 1.avi
Format : AVI
Format/Info : Audio Video Interleave
File size : 700 MiB
Duration : 1h 4mn
Overall bit rate : 1 524 Kbps
Movie name : ЅЕµйАЗ ёёВщ (1Иё)
Movie name/Url : http://www.allencoding.co.kr
Encoded by : (БЦ)їГАОДЪµщ
Subject : ЅЕµйАЗ ёёВщ (1Иё)
Mastered date : 2012-02-04
Writing application : AllEncoding 1.0
IMIU : http://www.opencloud.kr
Video #0
ID : 0
Format : MPEG-4 Visual
Format profile : Advanced [email protected]
Format settings, BVOP : 2
Format settings, QPel : No
Format settings, GMC : No warppoints
Format settings, Matrix : Default (H.263)
Muxing mode : Packed bitstream
Codec ID : XVID
Codec ID/Hint : XviD
Duration : 1h 4mn
Bit rate : 1 320 Kbps
Width : 624 pixels
Height : 352 pixels
Display aspect ratio : 16:9
Frame rate : 29.970 fps
Color space : YUV
Chroma subsampling : 4:2:0
Bit depth : 8 bits
Scan type : Progressive
Compression mode : Lossy
Bits/(Pixel*Frame) : 0.201
Stream size : 607 MiB (87%)
Writing library : XviD 1.1.2 (UTC 2006-11-01)
Audio #1
ID : 1
Format : AC-3
Format/Info : Audio Coding 3
Mode extension : CM (complete main)
Codec ID : 2000
Duration : 1h 4mn
Bit rate mode : Constant
Bit rate : 192 Kbps
Channel(s) : 2 channels
Channel positions : Front: L R
Sampling rate : 48.0 KHz
Bit depth : 16 bits
Compression mode : Lossy
Stream size : 88.2 MiB (13%)
Alignment : Aligned on interleaves
Interleave, duration : 33 ms (1.00 video frame)
Interleave, pr
b778b84fbc3a323019ae12fd8286f5a7312e4d14Пир богов / Feast of the Gods // Сезон 1, Эпизоды с 1 по 32 (из 32) (2012) [TVRip, оригинал, софтсаб] Пир богов / Feast of the Gods // Сезон 1, Эпизоды с 1 по 32 (из 32) (2012) [TVRip, оригинал, софтсаб] " />

Аплоадер: Админ, дата: 17-06-2012, 17:44, торрент скачан: 359 раз

Понравилась раздача? Посмотрите эти:
  • Айрис / IRIS // Сезон 2, Эпизоды с 1 по 12 (из 20) (2013) [HDTVRip, оригин ...
  • Айрис / IRIS // Сезон 2, Эпизоды с 1 по 11 (из 20) (2013) [HDTVRip, оригин ...
  • Айрис / IRIS // Сезон 2, Эпизоды с 1 по 6 (из 20) (2013) [HDTVRip, оригина ...
  • Айрис / IRIS // Сезон 2, Эпизоды с 1 по 4 (из 20) (2013) [HDTVRip, оригина ...
  • Школа 2013 / School 2013 // Сезон 5, Эпизоды с 1 по 16 (из 16) + special ( ...
  • Панда и ёж / Panda and Hedgehog // Сезон 1, Эпизоды с 1 по 16 (из 16) (2012 ...
  • Айрис / IRIS // Сезон 2, Эпизоды с 1 по 3 (из 20) (2013) [HDTVRip, оригина ...
  • Романтика без правил / Wild Romance // Сезон 1, Эпизоды с 1 по 16 (из 16) ( ...
  • Не проиграю / Cant lose // Сезон 1, Эпизоды с 1 по 14 (из 18) (2011) [DTVR ...
  • Король драмы / The King of Dramas // Сезон 1, Эпизоды с 1 по 18 (из 18) (20 ...
  • Tank Feat. T.I. & Kris Stephens / Compliments [2012, RnB,Hip-Hop, HDRip]
  • Война цветов / Tazza / War of Flowers // Сезон 1, Эпизоды с 1 по 21 (из 21) ...
  • Король двух сердец / The King 2 Hearts // Сезон 1, Эпизоды с 1 по 20 (из 2 ...
  • Падам Падам...Стук их сердец / Padam Padam...The Sound of His and Her Heart ...
  • Ну-ка, улыбнись / Smile, You // Сезон 1, Эпизоды с 1 по 45 (из 45) (2009) [ ...
  • Товарищеский матч / Звёзды Малайзии - Манчестер Сити / ТК Футбол [Футбол, 2 ...
  • Мой мальчик / Ma boy // Сезон 1, Эпизоды с 1 по 3 (из 3) (2012) [TVRip, ори ...
  • Панда и ёж / Panda and Hedgehog // Сезон 1, Эпизоды с 1 по 2 (из 16) (2012) ...
  • Синдром / Syndrome // Сезон 1, Эпизоды с 1 по 20 (из 20) (2012) [HDTVRip, ...
  • Король драмы / The King of Dramas // Сезон 1, Эпизоды с 1 по 8 (из 16) (201 ...
  • Информация
    Посетители, находящиеся в группе Гости, не могут оставлять комментарии к данной публикации.