вход на сайт

Имя пользователя :
Пароль :

Восстановление пароля Регистрация
Человек чести / Man of Honor / Glory Jane // Сезон 1, Эпизоды с 1 по 24 (из 24) (2011) [HDTVRip, оригинал, софтсаб]
Рейтинг:
(голосов: 1)



[img]{THEME}/images/logopost.png[/img]



Человек чести
Man of Honor / Glory Jane


Сезон 1, Эпизоды с 1 по 24 (из 24)

Год выпуска: 2011
Страна: Южная Корея
Производство студии: KBS2
Жанр: романтика
Режиссёр: Lee Jung Sub
В ролях:
~ Chun Jung Myung - Ким Ён Гван
~ Ahn Do Gyu - Ён Гван в детстве
~ Park Min Young - Юн Чжэ Ин
~ Ahn Eun Jung - Чжэ Ин в детстве
~ Lee Jang Woo - Со Ин У
~ Kim Ji Hoon - Ин У в детстве
~ Park Sung Woong - Со Ин Чхоль
~ Son Chang Min - Со Чжэ Мён
~ Choi Myung Gil - Пак Гун Чжа
~ Son Chang Min - Со Чжэ Мён

Перевод: Фансаб-группа IRISubs & Фансаб-группа Bears

Фансаб-группа IRISubs
Перевод: Marissa

Фансаб-группа Bears
Перевод: Саша, Юля, Ita-chan
Редакция: Ita-chan

Озвучка: Оригинал
Хардсаб: Нет
Софтсаб: Есть (внешний, русский)

Описание:
Мечта Ким Ён Гвана с детства - уделать Со Ин У, бейсболиста-везунчика из высшей лиги.
Когда-то и сам Ён Гван был знаменитым бьющим, но ныне он играет в низшей лиге.
И вот уже совсем отчаявшись и осознав, что его мечте не дано сбыться, он встречает её... ту, из-за которой всё началось...

Качество: HDTVRip
Продолжительность: 1 эпизод ~ 01:05:00

Формат: AVI
Видео кодек: H264
Аудио кодек: AC3
Свойства видео: 800x450 (1.78:1), 29.970 fps, MPEG4 Video (H264) ~1563 kbps avg, 0.14 bit/pixel
Свойства аудио:48 kHz, AC3 Dolby Digital, 2/0 (L,R) ch, ~192.00 kbps avg

отчет MediaInfo ▼Text
General
Complete name : Человек чести (Man of Honor)Man of Honor E01.avi
Format : AVI
Format/Info : Audio Video Interleave
File size : 800 MiB
Duration : 1h 3mn
Overall bit rate : 1 767 Kbps
Writing application : VirtualDubMod 1.5.10.2 (build 2540/release)
Writing library : VirtualDubMod build 2540/release
Video #0
ID : 0
Format : AVC
Format/Info : Advanced Video Codec
Format profile : [email protected]
Format settings, CABAC : Yes
Format settings, ReFrames : 2 frames
Codec ID : H264
Duration : 1h 3mn
Bit rate : 1 560 Kbps
Width : 800 pixels
Height : 450 pixels
Display aspect ratio : 16:9
Frame rate : 29.970 fps
Color space : YUV
Chroma subsampling : 4:2:0
Bit depth : 8 bits
Scan type : Progressive
Bits/(Pixel*Frame) : 0.145
Stream size : 708 MiB (88%)
Writing library : x264 core 50 svn-569
Encoding settings : cabac=1 / ref=1 / deblock=1:0:0 / analyse=0x3:0x113 / me=hex / subme=5 / brdo=0 / mixed_ref=0 / me_range=16 / chroma_me=1 / trellis=1 / 8x8dct=1 / cqm=0 / chroma_qp_offset=0 / slices=1 / nr=0 / decimate=1 / bframes=2 / b_pyramid=0 / b_adapt=1 / b_bias=0 / direct=2 / wpredb=1 / bime=0 / keyint=250 / keyint_min=25 / scenecut=40 / rc=abr / bitrate=1560 / ratetol=1.0 / rceq=blurCplx^(1-qComp) / qcomp=0.60 / qpmin=10 / qpmax=51 / qpstep=4 / ip_ratio=1.40 / pb_ratio=1.30
Audio #1
ID : 1
Format : AC-3
Format/Info : Audio Coding 3
Mode extension : CM (complete main)
Codec ID : 2000
Duration : 1h 3mn
Bit rate mode : Constant
Bit rate : 192 Kbps
Channel(s) : 2 channels
Channel positions : Front: L R
Sampling rate : 48.0 KHz
Bit depth : 16 bits
Compression mode : Lossy
Stream size : 86.9 MiB (11%)
Alignment : Aligned on interleaves
Interleave, duration : 33 ms (1.00 video frame)
Interleave, preload duration : 512 ms





e3b5fcf357389dc0ecf3e6e3e0d647eedfe8bb77Человек чести / Man of Honor / Glory Jane // Сезон 1, Эпизоды с 1 по 24 (из 24) (2011) [HDTVRip, оригинал, софтсаб] Человек чести / Man of Honor / Glory Jane // Сезон 1, Эпизоды с 1 по 24 (из 24) (2011) [HDTVRip, оригинал, софтсаб] " />

Аплоадер: Админ, дата: 12-06-2012, 23:59, торрент скачан: 359 раз

Понравилась раздача? Посмотрите эти:
  • Наследники. Под тяжестью короны / The Heirs // Сезон 1, Эпизоды с 1 по 16 ...
  • Человек со звезды / Man from the Stars / Сезон 1, Эпизоды с 1 по 6 (из 20) ...
  • Наследники. Под тяжестью короны / The Heirs // Сезон 1, Эпизоды с 1 по 12 ...
  • Наследники. Под тяжестью короны / The Heirs // Сезон 1, Эпизоды с 1 по 8 ( ...
  • Жду любовь / Waiting for love / Сезон 1, Эпизоды с 1 по 2 (из 2) (2013) [HD ...
  • Богиня огня Чжон И / The Goddess of Fire, Jung Yi / Сезон 1, Эпизоды с 1 по ...
  • Панда и ёж / Panda and Hedgehog // Сезон 1, Эпизоды с 1 по 16 (из 16) (2012 ...
  • Солнце в объятиях луны / Луна и Солнце / The Moon That Embraces the Sun // ...
  • Романтика без правил / Wild Romance // Сезон 1, Эпизоды с 1 по 16 (из 16) ( ...
  • Не проиграю / Cant lose // Сезон 1, Эпизоды с 1 по 14 (из 18) (2011) [DTVR ...
  • Мститель в маске / Bridal Mask // Сезон 1, Эпизоды с 1 по 28 (из 28) (2012) ...
  • Король драмы / The King of Dramas // Сезон 1, Эпизоды с 1 по 18 (из 18) (20 ...
  • Mylene Farmer / Du Temps [2011, Pop, HDTVRip]
  • Mylene Farmer / Bleu Noir [2011, Pop, HDTVRip]
  • Дождь любви / Love Rain / Love Rides the Rain // Сезон 1, Эпизоды с 1 по 20 ...
  • Король двух сердец / The King 2 Hearts // Сезон 1, Эпизоды с 1 по 20 (из 2 ...
  • Мой мальчик / Ma boy // Сезон 1, Эпизоды с 1 по 3 (из 3) (2012) [TVRip, ори ...
  • Панда и ёж / Panda and Hedgehog // Сезон 1, Эпизоды с 1 по 2 (из 16) (2012) ...
  • Синдром / Syndrome // Сезон 1, Эпизоды с 1 по 20 (из 20) (2012) [HDTVRip, ...
  • Король драмы / The King of Dramas // Сезон 1, Эпизоды с 1 по 8 (из 16) (201 ...
  • Информация
    Посетители, находящиеся в группе Гости, не могут оставлять комментарии к данной публикации.