вход на сайт

Имя пользователя :
Пароль :

Восстановление пароля Регистрация
Не проиграю / Cant lose // Сезон 1, Эпизоды с 1 по 14 (из 18) (2011) [DTVRip, оригинал, софтсаб]
Рейтинг:
(голосов: 1)



[img]{THEME}/images/logopost.png[/img]



Не проиграю / Cant lose


Сезон 1, Эпизоды с 1 по 14 (из 18)

Год выпуска: 2011
Страна: Южная Корея
Производство студии: MBC
Жанр: комедия, романтика
Альтернативное название: I Cant Live Losing

Режиссёр: Lee Jae Dong
В ролях:
• Choi Ji Woo в роли Lee Eun Jae
• Yoon Sang Hyun в роли Yun Hyung Woo
• Kim Jung Tae в роли Go Ki Chan
• Jo Mi Ryung в роли Kim Young Joo
• Sung Dong Il в роли Jo Jung Goo
• Park Won Sook в роли Yoo Jung Nan
• Kim Ja Ok в роли Hong Geum Ji
• Joo Jin Mo в роли Kang Woo Shik
• Ga Deuk Hee (가득희) в роли Ga Deuk Hee
• Ha Suk Jin
• Song Jae Ho (эпизодическая роль)
• Lee Soo Kyung (эпизодическая роль)

Перевод: Фансаб-группа Chocolate subs

Озвучка: Оригинал
Хардсаб: Нет
Софтсаб: Есть (внешний, русский)

Описание:
Юн Хён У и Ли Ын Дже являются высококвалифицированными адвокатами, которые при первой же встрече влюбились, не зная ничего о профессии друг друга, но затем начался самый разгар их бракоразводного процесса. Их отношения были изначально нежными и любящими, но их брак медленно начал трещать под прессом постоянных битв.

Качество: DTVRip
Продолжительность: 1 эпизод ~ 01:10:00

Формат: AVI
Видео кодек: H264
Аудио кодек: AC3
Свойства видео: 800x450 (1.78:1), 29.970 fps, MPEG4 Video (H264) ~1605 kbps avg, 0.15 bit/pixel
Свойства аудио: 48 kHz, AC3 Dolby Digital, 2/0 (L,R) ch, ~192.00 kbps avg

отчет MediaInfo ▼Text
General
Complete name : Cant LoseCant Lose E01.avi
Format : AVI
Format/Info : Audio Video Interleave
File size : 1.60 GiB
Duration : 1h 6mn
Overall bit rate : 3 475 Kbps
Writing application : VirtualDubMod 1.5.10.2 (build 2540/release)
Writing library : VirtualDubMod build 2540/release
Video #0
ID : 0
Format : AVC
Format/Info : Advanced Video Codec
Format profile : [email protected]
Format settings, CABAC : Yes
Format settings, ReFrames : 2 frames
Codec ID : H264
Duration : 1h 6mn
Bit rate : 1 600 Kbps
Width : 800 pixels
Height : 450 pixels
Display aspect ratio : 16:9
Frame rate : 29.970 fps
Color space : YUV
Chroma subsampling : 4:2:0
Bit depth : 8 bits
Scan type : Progressive
Bits/(Pixel*Frame) : 0.148
Stream size : 759 MiB (46%)
Writing library : x264 core 50 svn-569
Encoding settings : cabac=1 / ref=1 / deblock=1:0:0 / analyse=0x3:0x113 / me=hex / subme=5 / brdo=0 / mixed_ref=0 / me_range=16 / chroma_me=1 / trellis=1 / 8x8dct=1 / cqm=0 / chroma_qp_offset=0 / slices=1 / nr=0 / decimate=1 / bframes=2 / b_pyramid=0 / b_adapt=1 / b_bias=0 / direct=2 / wpredb=1 / bime=0 / keyint=250 / keyint_min=25 / scenecut=40 / rc=abr / bitrate=1600 / ratetol=1.0 / rceq=blurCplx^(1-qComp) / qcomp=0.60 / qpmin=10 / qpmax=51 / qpstep=4 / ip_ratio=1.40 / pb_ratio=1.30
Audio #1
ID : 1
Format : AC-3
Format/Info : Audio Coding 3
Mode extension : CM (complete main)
Codec ID : 2000
Duration : 1h 6mn
Bit rate mode : Constant
Bit rate : 192 Kbps
Channel(s) : 2 channels
Channel positions : Front: L R
Sampling rate : 48.0 KHz
Bit depth : 16 bits
Compression mode : Lossy
Stream size : 90.8 MiB (6%)
Alignment : Aligned on interleaves
Interleave, duration : 33 ms (1.00 video frame)
Interleave, preload duration : 512 ms


Скринлисты ▼
1 серия ▼
2 серия ▼
3 серия ▼
4 серия ▼




633b9f346b3f58ea2583ccb3c101514aad0bad02Не проиграю / Cant lose // Сезон 1, Эпизоды с 1 по 14 (из 18) (2011) [DTVRip, оригинал, софтсаб] Не проиграю / Cant lose // Сезон 1, Эпизоды с 1 по 14 (из 18) (2011) [DTVRip, оригинал, софтсаб] " />

Аплоадер: Админ, дата: 12-06-2012, 23:04, торрент скачан: 359 раз

Понравилась раздача? Посмотрите эти:
  • Наследники. Под тяжестью короны / The Heirs // Сезон 1, Эпизоды с 1 по 16 ...
  • Наследники. Под тяжестью короны / The Heirs // Сезон 1, Эпизоды с 1 по 12 ...
  • Наследники. Под тяжестью короны / The Heirs // Сезон 1, Эпизоды с 1 по 8 ( ...
  • Жду любовь / Waiting for love / Сезон 1, Эпизоды с 1 по 2 (из 2) (2013) [HD ...
  • Богиня огня Чжон И / The Goddess of Fire, Jung Yi / Сезон 1, Эпизоды с 1 по ...
  • Школа 2013 / School 2013 // Сезон 5, Эпизоды с 1 по 16 (из 16) + special ( ...
  • Панда и ёж / Panda and Hedgehog // Сезон 1, Эпизоды с 1 по 16 (из 16) (2012 ...
  • Солнце в объятиях луны / Луна и Солнце / The Moon That Embraces the Sun // ...
  • Романтика без правил / Wild Romance // Сезон 1, Эпизоды с 1 по 16 (из 16) ( ...
  • Человек чести / Man of Honor / Glory Jane // Сезон 1, Эпизоды с 1 по 24 (из ...
  • Мститель в маске / Bridal Mask // Сезон 1, Эпизоды с 1 по 28 (из 28) (2012) ...
  • Король драмы / The King of Dramas // Сезон 1, Эпизоды с 1 по 18 (из 18) (20 ...
  • Дождь любви / Love Rain / Love Rides the Rain // Сезон 1, Эпизоды с 1 по 20 ...
  • Король двух сердец / The King 2 Hearts // Сезон 1, Эпизоды с 1 по 20 (из 2 ...
  • Падам Падам...Стук их сердец / Padam Padam...The Sound of His and Her Heart ...
  • Ну-ка, улыбнись / Smile, You // Сезон 1, Эпизоды с 1 по 45 (из 45) (2009) [ ...
  • Мой мальчик / Ma boy // Сезон 1, Эпизоды с 1 по 3 (из 3) (2012) [TVRip, ори ...
  • Панда и ёж / Panda and Hedgehog // Сезон 1, Эпизоды с 1 по 2 (из 16) (2012) ...
  • Синдром / Syndrome // Сезон 1, Эпизоды с 1 по 20 (из 20) (2012) [HDTVRip, ...
  • Король драмы / The King of Dramas // Сезон 1, Эпизоды с 1 по 8 (из 16) (201 ...
  • Информация
    Посетители, находящиеся в группе Гости, не могут оставлять комментарии к данной публикации.