вход на сайт

Имя пользователя :
Пароль :

Восстановление пароля Регистрация
Да она чокнутая! / Glowing She / My Shining Girl // Сезон 1, Эпизоды с 1 по 12 (из 12) + 3 Special (2012) [HDTVRip, оригинал, софтсаб]
Рейтинг:
(голосов: 1)



[img]{THEME}/images/logopost.png[/img]



Да она чокнутая!
Glowing She / My Shining Girl


Сезон 1, Эпизоды с 1 по 12 (из 12) + 3 Special

Год выпуска: 2012
Страна: Южная Корея
Производство студии: KBS-N
Жанр: романтика, комедия
Режиссёр: Lee Jung Pyo
В ролях:
~ Kim Hyung Jun (Пианиссимо: Тёмный город) - Кан Мин
~ So Yi Hyun (Струны твоего сердца, Глория, Поглощённые солнцем) - Чон Чжи Хён
~ Park Kwang Hyun (Поглощённые солнцем) - Но Ён У

Перевод: Фансаб-группа Альянс

Перевод:
~ нечётные серии - Sorsik
~ чётные серии - Takagi
Редакция: Sorsik
Координация: Sorsik
Тайминг: Abdulla555, Sophy
Озвучка: Оригинал
Хардсаб:
~ 1-12 серии: Нет
~ Special: Есть (русский)
~ Special 2-3: Нет
Софтсаб:
~ 1-12 серии: Есть (внешний, русский)
~ Special: Отсутствует
~ Special 2-3: Есть (внешний, русский)

Описание:
История о взаимоотношениях между звёздами, режиссёрами и сценаристами, работающими на телестудии.
Наш главный герой - Кан Мин, популярный айдол, он же редкая, но харизматичная зараза, которому для полного счастья в жизни не хватает одного - по-настоящему влюбиться. И как кстати в поле его зрения попадает новая сценаристка телеканала... Чем не повод для романтической комедии?
©Sorsik

Качество: HDTVRip
Продолжительность:
~ 1 эпизод: ~ 00:55:00
~ Special: ~ 00:05:00

Формат: MPEG-4
Видео кодек: H264
Аудио кодек: AAC
Свойства видео: 1280x720 (16:9), 29.970 fps, ~2023 kbps avg, 0.073 bit/pixel
Свойства аудио:44.1 kHz, 2/0 (L,R) ch, ~152.00 kbps avg

отчёт MediaInfo ▼Text
General
Complete name : Glowing SheShes completely insane 01.mp4
Format : MPEG-4
Format profile : Base Media / Version 2
Codec ID : mp42
File size : 881 MiB
Duration : 56mn 32s
Overall bit rate : 2 178 Kbps
Encoded date : UTC 2012-01-06 19:55:14
Tagged date : UTC 2012-01-06 19:55:14
gsst : 0
gstd : 3392991
gssd : B4A7D6CE1MH1327011830433508
gshh : o-o.preferred.rds-tsr1.v1.nonxt7.c.youtube.com
Video #1
ID : 1
Format : AVC
Format/Info : Advanced Video Codec
Format profile : [email protected]
Format settings, CABAC : Yes
Format settings, ReFrames : 1 frame
Format settings, GOP : M=1, N=60
Codec ID : avc1
Codec ID/Info : Advanced Video Coding
Duration : 56mn 32s
Bit rate : 2 023 Kbps
Maximum bit rate : 5 768 Kbps
Width : 1 280 pixels
Height : 720 pixels
Display aspect ratio : 16:9
Frame rate mode : Constant
Frame rate : 29.970 fps
Color space : YUV
Chroma subsampling : 4:2:0
Bit depth : 8 bits
Scan type : Progressive
Bits/(Pixel*Frame) : 0.073
Stream size : 818 MiB (93%)
Tagged date : UTC 2012-01-06 19:56:11
Audio #2
ID : 2
Format : AAC
Format/Info : Advanced Audio Codec
Format profile : LC
Codec ID : 40
Duration : 56mn 32s
Bit rate mode : Variable
Bit rate : 152 Kbps
Maximum bit rate : 246 Kbps
Channel(s) : 2 channels
Channel positions : Front: L R
Sampling rate : 44.1 KHz
Compression mode : Lossy
Stream size : 61.5 MiB (7%)
Title : IsoMedia File Produced by Google, 5-11-2011
Encoded date : UTC 2012-01-06 19:55:59
Tagged date : UTC 2012-01-06 19:56:11


Скринлисты ▼
1 серия ▼
Special 2 ▼



8e38c03b6fde2671c39a3728e70176be285a4bffДа она чокнутая! / Glowing She / My Shining Girl // Сезон 1, Эпизоды с 1 по 12 (из 12) + 3 Special (2012) [HDTVRip, оригинал, софтсаб] Да она чокнутая! / Glowing She / My Shining Girl // Сезон 1, Эпизоды с 1 по 12 (из 12) + 3 Special (2012) [HDTVRip, оригинал, софтсаб] " />

Аплоадер: Админ, дата: 23-05-2012, 23:14, торрент скачан: 359 раз

Понравилась раздача? Посмотрите эти:
  • Ярослава / Это любовь [2012, Pop, HDRip]
  • NBA 2013-2014 / RS / Highlights [Баскетбол, 04.11.2013, WEB-DL HD/720p, MP4 ...
  • Полное прохождение Grand Theft Auto V (GTA 5) [HD / RUS / 2013]
  • Жорабеков Понти / Көзімнен жас тамады сені қимай [2013, Pop, WebRip]
  • NHL 12/13 / Stanley Cup Playoffs / East / Round 1 / Game 2 / Toronto Maple ...
  • NHL 12/13 / Stanley Cup Playoffs / West / Round 1 / Game 3 / Vancouver Canu ...
  • WWE Extreme Rules + Preshow [19.05.2013, Рестлинг, WEB-DL-HDTV/720p, MP4-MK ...
  • Quincy Jones & Akon / Strawberry Letter 23 [2010, R&B, HDRip]
  • Prodigy (of Mobb Deep) / Pretty Thug [2012, Rap, WEBRip]
  • Coldplay / Christmas Lights [2010, Indie Rock,Britpop, HDRip]
  • Owl City feat. Shawn Chrystopher / Alligator Sky [2011, Electronic, HDRip]
  • Tanir (Da Gudda Jazz) / Шестиколесный Велосипед [2011, Rap, WEBRip]
  • Lana Del Rey / Born To Die [2011, Indie Pop, HDRip]
  • [Тизер #1] 007: Координаты «Скайфолл» / Skyfall (Сэм Мендес, боевик, трилле ...
  • Madonna / Girl Gone Wild [2012, Pop, HDTV]
  • LeBron James 2012 Finals MVP [Баскетбол, 24.06.2012, HD, 720p, H.264, EN, H ...
  • Top 10 Plays of the 2012 NBA Finals [Баскетбол, 25.06.2012, HD, 720p, H.264 ...
  • Top 10 Dunks of the 2012 NBA Finals [Баскетбол, 25.06.2012, HD, 720p, H.264 ...
  • Чемпионат Европы 2012 / TOP 10 Goals & Best Moments [Футбол, 04.07.2012, HD ...
  • Я люблю Ли Тэ Ри / Aileobeu Itaeli / I Love Lee Tae Ri // Сезон 1, Эпизоды ...
  • Информация
    Посетители, находящиеся в группе Гости, не могут оставлять комментарии к данной публикации.