вход на сайт

Имя пользователя :
Пароль :

Восстановление пароля Регистрация
Романтика без правил / Wild Romance // Сезон 1, Эпизоды с 1 по 16 (из 16) (2012) [HDTVRip, оригинал, софтсаб]
Рейтинг:
(голосов: 1)



[img]{THEME}/images/logopost.png[/img]



Романтика без правил
Wild Romance / Nanpokhan Romaenseu


Сезон 1, Эпизоды с 1 по 16 (из 16)

Год выпуска: 2012
Страна: Южная Корея
Производство студии: KBS2
Жанр: романтика, комедия
Режиссёр: Bae Kyung Soo
В ролях:
~ Lee Dong Wook - Baseball player Park Moo Yeol
~ Lee Si Young - Guard Yoo Eun Jae
~ Oh Man Seok - Baseball player Jin Dong Soo
~ Kang Dong Ho - Kim Tae Han
~ Hwang Sun Hee - Oh Soo Young
~ Jessica - Kang Jong Hee
~ Lim Ju Eun - Kim Dong Ah

Перевод: Фансаб-группа Альянс

~ 1-я серия : братство зеленых человечков, под руководством серого кардинала)))
Перевод: Servina Yan и Tomiris
Редакция: aka_Mia Yan и Sosha
Бета-редакция: ksilnew

~ со 2-й серии: семейство Yan
Озвучка: Оригинал
Хардсаб: Нет
Софтсаб: Есть (внешний, русский)

Описание:
Очень и очень "грустная" история о том, что может получится, если игрок-бейсболист почувствует вдруг некие чувства к персоне из охраны. И что будет, если бывшей спортсменке-дзюдоистке встретится такой вот кадр.
Смотрите и не пожалеете!
©aka_Mia Yan

Качество: HDTVRip
Продолжительность: 1 эпизод ~ 01:05:00

Формат: AVI
Видео кодек: H264
Аудио кодек: AC3
Свойства видео: 800x450 (1.78:1), 29.970 fps, H.264 ~1519 kbps avg, 0.14 bit/pixel
Свойства аудио:48 kHz, AC3 Dolby Digital, 2/0 (L,R) ch, ~192 kbps


отчет MediaInfo ▼Text
General
Complete name : Романтика без правил[alliance] Wild Romance 01.avi
Format : AVI
Format/Info : Audio Video Interleave
File size : 802 MiB
Duration : 1h 5mn
Overall bit rate : 1 723 Kbps
Movie name : і­ЖшЗС ·ОёаЅє (1Иё)
Movie name/Url : http://www.allencoding.co.kr
Mastered date : 2012-01-05
Writing application : AllEncoding 1.0
IMIU : http://www.opencloud.kr
Video #0
ID : 0
Format : AVC
Format/Info : Advanced Video Codec
Format profile : [email protected]
Format settings, CABAC : Yes
Format settings, ReFrames : 2 frames
Codec ID : H264
Duration : 1h 5mn
Bit rate : 1 505 Kbps
Width : 800 pixels
Height : 450 pixels
Display aspect ratio : 16:9
Frame rate : 29.970 fps
Color space : YUV
Chroma subsampling : 4:2:0
Bit depth : 8 bits
Scan type : Progressive
Bits/(Pixel*Frame) : 0.139
Stream size : 707 MiB (88%)
Writing library : x264 core 50 svn-569
Encoding settings : cabac=1 / ref=1 / deblock=1:0:0 / analyse=0x3:0x113 / me=hex / subme=5 / brdo=0 / mixed_ref=0 / me_range=16 / chroma_me=1 / trellis=1 / 8x8dct=1 / cqm=0 / chroma_qp_offset=0 / slices=1 / nr=0 / decimate=1 / bframes=2 / b_pyramid=0 / b_adapt=1 / b_bias=0 / direct=2 / wpredb=1 / bime=0 / keyint=250 / keyint_min=25 / scenecut=40 / rc=abr / bitrate=1505 / ratetol=1.0 / rceq=blurCplx^(1-qComp) / qcomp=0.60 / qpmin=10 / qpmax=51 / qpstep=4 / ip_ratio=1.40 / pb_ratio=1.30
Audio #1
ID : 1
Format : AC-3
Format/Info : Audio Coding 3
Mode extension : CM (complete main)
Codec ID : 2000
Duration : 1h 5mn
Bit rate mode : Constant
Bit rate : 192 Kbps
Channel(s) : 2 channels
Channel positions : Front: L R
Sampling rate : 48.0 KHz
Bit depth : 16 bits
Compression mode : Lossy
Delay relative to video : 535ms
Stream size : 89.4 MiB (11%)
Alignment : Split accross interleaves
Interleave, duration : 33 ms (1.00 video frame)
Interleave, preload duration : 500 ms


Скринлисты ▼
1 серия ▼
2 серия ▼
3 серия ▼
4 серия ▼
5
7c6ba4c5cbb588f126ee10a97b1b0cb0c0a7b3d3Романтика без правил / Wild Romance // Сезон 1, Эпизоды с 1 по 16 (из 16) (2012) [HDTVRip, оригинал, софтсаб] Романтика без правил / Wild Romance // Сезон 1, Эпизоды с 1 по 16 (из 16) (2012) [HDTVRip, оригинал, софтсаб] " />

Аплоадер: Админ, дата: 18-04-2012, 22:16, торрент скачан: 359 раз

Понравилась раздача? Посмотрите эти:
  • Наследники. Под тяжестью короны / The Heirs // Сезон 1, Эпизоды с 1 по 16 ...
  • Наследники. Под тяжестью короны / The Heirs // Сезон 1, Эпизоды с 1 по 12 ...
  • Наследники. Под тяжестью короны / The Heirs // Сезон 1, Эпизоды с 1 по 8 ( ...
  • Панда и ёж / Panda and Hedgehog // Сезон 1, Эпизоды с 1 по 16 (из 16) (2012 ...
  • Солнце в объятиях луны / Луна и Солнце / The Moon That Embraces the Sun // ...
  • Не проиграю / Cant lose // Сезон 1, Эпизоды с 1 по 14 (из 18) (2011) [DTVR ...
  • Человек чести / Man of Honor / Glory Jane // Сезон 1, Эпизоды с 1 по 24 (из ...
  • Пир богов / Feast of the Gods // Сезон 1, Эпизоды с 1 по 32 (из 32) (2012) ...
  • Истинный джентльмен / Shinsaui Poomgyuk / Gentlemans Dignity // Сезон 1, Эп ...
  • Мститель в маске / Bridal Mask // Сезон 1, Эпизоды с 1 по 28 (из 28) (2012) ...
  • Король драмы / The King of Dramas // Сезон 1, Эпизоды с 1 по 18 (из 18) (20 ...
  • Золотое время / Gol-deun-ta-im / Golden Time // Сезон 1, Эпизоды с 1 по 23 ...
  • Дождь любви / Love Rain / Love Rides the Rain // Сезон 1, Эпизоды с 1 по 20 ...
  • Madonna / Girl Gone Wild [2012, Pop, HDTV]
  • Король двух сердец / The King 2 Hearts // Сезон 1, Эпизоды с 1 по 20 (из 2 ...
  • Мой мальчик / Ma boy // Сезон 1, Эпизоды с 1 по 3 (из 3) (2012) [TVRip, ори ...
  • Панда и ёж / Panda and Hedgehog // Сезон 1, Эпизоды с 1 по 2 (из 16) (2012) ...
  • Я люблю Ли Тэ Ри / Aileobeu Itaeli / I Love Lee Tae Ri // Сезон 1, Эпизоды ...
  • Тысячный мужчина / The Thousandth Man // Сезон 1, Эпизоды с 1 по 8 (из 8) ( ...
  • Король драмы / The King of Dramas // Сезон 1, Эпизоды с 1 по 8 (из 16) (201 ...
  • Информация
    Посетители, находящиеся в группе Гости, не могут оставлять комментарии к данной публикации.