вход на сайт

Имя пользователя :
Пароль :

Восстановление пароля Регистрация
Солнце в объятиях луны / Луна и Солнце / The Moon That Embraces the Sun // Сезон 1, Эпизоды с 1 по 20 (из 20) (2012) [HDTVRip, оригинал, софтсаб]
Рейтинг:
(голосов: 1)



[img]{THEME}/images/logopost.png[/img]



Солнце в объятиях луны
Луна и Солнце / The Moon That Embraces the Sun


Сезон 1, Эпизоды с 1 по 20 (из 20)

Год выпуска: 2012
Страна: Южная Корея
Производство студии: MBC
Жанр: романтика, фэнтези, исторический

Режиссёр: Kim Do Hoon
В ролях:
~ Yeo Jin Goo в роли Lee Hwon (в молодости)
~ Han Ga In в роли Wol / Heo Yeon Woo
~ Kim Yoo Jung в роли Wol / Heo Yeon Woo (в молодости)
~ Jung Il Woo в роли Prince Yang Myung
~ Lee Min Ho (1993) в роли Prince Yang Myung (в молодости)
~ Kim Min Seo в роли Yoon Bo Kyung
~ Kim So Hyun в троли Yoon Bo Kyung (в молодости)

Перевод: Фансаб-группа Bears
▼Перевод: Narvskaya
Редакция: Narvskaya
Озвучка: Оригинал
Хардсаб: Нет
Софтсаб: Есть (внешний, русский)

Описание:
Древний Чосон. Будущий Король, а ныне Наследный Принц Ли Хвон влюбляется в Ён У, красивую и удивительно умную девушку. Но их любовь противоречила планам его коварной бабушки и дяди из клана Юн, и они решили помешать их союзу и убить бедную девушку. Однако давние грехи не дают о себе знать, и девушку спасает шаманка Чан. Но какова цена её спасения?
Дорама повествует о любви Короля Ли Хвона и шаманки Воль. От создателей дорамы "Скандал в Сонгюнгване", по одноимённой книге "The Moon That Embraces The Sun".

Качество: HDTVRip
Продолжительность: 1 эпизод ~ 01:05:00

Формат: AVI
Видео кодек: H264
Аудио кодек: AC3
Свойства видео: 800x450 (1.78:1), 29.970 fps, H.264/AVC Encoder ~1565 kbps avg, 0.14 bit/pixel
Свойства аудио:48 kHz, AC3 Dolby Digital, 2/0 (L,R) ch, ~192 kbps

отчет MediaInfo ▼Text Complete name : The Moon That Embraces the Sun 01.avi
Format : AVI
Format/Info : Audio Video Interleave
File size : 904 MiB
Duration : 1h 11mn
Overall bit rate : 1 757 Kbps
Law rating : 15
Mastered date : 2012-01-05
Writing application : AllEncoding 1.0
Original source form/Name : MBC
Copyright : MBC
Video #0
ID : 0
Format : AVC
Format/Info : Advanced Video Codec
Format profile : [email protected]
Format settings, CABAC : Yes
Format settings, ReFrames : 2 frames
Codec ID : H264
Duration : 1h 11mn
Bit rate : 1 554 Kbps
Width : 800 pixels
Height : 450 pixels
Display aspect ratio : 16:9
Frame rate : 29.970 fps
Color space : YUV
Chroma subsampling : 4:2:0
Bit depth : 8 bits
Scan type : Progressive
Bits/(Pixel*Frame) : 0.144
Stream size : 799 MiB (88%)
Writing library : x264 core 50 svn-569
Encoding settings : cabac=1 / ref=1 / deblock=1:0:0 / analyse=0x3:0x133 / me=hex / subme=5 / brdo=0 / mixed_ref=0 / me_range=16 / chroma_me=1 / trellis=1 / 8x8dct=1 / cqm=0 / chroma_qp_offset=0 / slices=1 / nr=0 / decimate=1 / bframes=2 / b_pyramid=0 / b_adapt=1 / b_bias=0 / direct=2 / wpredb=1 / bime=0 / keyint=250 / keyint_min=25 / scenecut=40 / rc=abr / bitrate=1554 / ratetol=1.0 / rceq=blurCplx^(1-qComp) / qcomp=0.60 / qpmin=10 / qpmax=51 / qpstep=4 / ip_ratio=1.40 / pb_ratio=1.30
Audio #1
ID : 1
Format : AC-3
Format/Info : Audio Coding 3
Mode extension : CM (complete main)
Codec ID : 2000
Duration : 1h 11mn
Bit rate mode : Constant
Bit rate : 192 Kbps
Channel(s) : 2 channels
Channel positions : Front: L R
Sampling rate : 48.0 KHz
Bit depth : 16 bits
Compression mode : Lossy
Stream size : 98.7 MiB (11%)
Alignment : Aligned on interleaves
Interleave, duration : 33 ms (1.00 video frame)
Int
63d981681b7f2bbec48476a20b6a4b3523b89717Солнце в объятиях луны / Луна и Солнце / The Moon That Embraces the Sun // Сезон 1, Эпизоды с 1 по 20 (из 20) (2012) [HDTVRip, оригинал, софтсаб] Солнце в объятиях луны / Луна и Солнце / The Moon That Embraces the Sun // Сезон 1, Эпизоды с 1 по 20 (из 20) (2012) [HDTVRip, оригинал, софтсаб] " />

Аплоадер: Админ, дата: 30-03-2012, 07:12, торрент скачан: 359 раз

Понравилась раздача? Посмотрите эти:
  • Наследники. Под тяжестью короны / The Heirs // Сезон 1, Эпизоды с 1 по 16 ...
  • Наследники. Под тяжестью короны / The Heirs // Сезон 1, Эпизоды с 1 по 12 ...
  • Наследники. Под тяжестью короны / The Heirs // Сезон 1, Эпизоды с 1 по 8 ( ...
  • Богиня огня Чжон И / The Goddess of Fire, Jung Yi / Сезон 1, Эпизоды с 1 по ...
  • Айрис / IRIS // Сезон 2, Эпизоды с 1 по 12 (из 20) (2013) [HDTVRip, оригин ...
  • Школа 2013 / School 2013 // Сезон 5, Эпизоды с 1 по 16 (из 16) + special ( ...
  • Панда и ёж / Panda and Hedgehog // Сезон 1, Эпизоды с 1 по 16 (из 16) (2012 ...
  • Романтика без правил / Wild Romance // Сезон 1, Эпизоды с 1 по 16 (из 16) ( ...
  • Солнце в объятиях луны / Haereul Poomeun Dal / The Moon That Embraces the S ...
  • Не проиграю / Cant lose // Сезон 1, Эпизоды с 1 по 14 (из 18) (2011) [DTVR ...
  • Человек чести / Man of Honor / Glory Jane // Сезон 1, Эпизоды с 1 по 24 (из ...
  • Мститель в маске / Bridal Mask // Сезон 1, Эпизоды с 1 по 28 (из 28) (2012) ...
  • Король драмы / The King of Dramas // Сезон 1, Эпизоды с 1 по 18 (из 18) (20 ...
  • Дождь любви / Love Rain / Love Rides the Rain // Сезон 1, Эпизоды с 1 по 20 ...
  • Король двух сердец / The King 2 Hearts // Сезон 1, Эпизоды с 1 по 20 (из 2 ...
  • Мой мальчик / Ma boy // Сезон 1, Эпизоды с 1 по 3 (из 3) (2012) [TVRip, ори ...
  • Панда и ёж / Panda and Hedgehog // Сезон 1, Эпизоды с 1 по 2 (из 16) (2012) ...
  • Синдром / Syndrome // Сезон 1, Эпизоды с 1 по 20 (из 20) (2012) [HDTVRip, ...
  • Я люблю Ли Тэ Ри / Aileobeu Itaeli / I Love Lee Tae Ri // Сезон 1, Эпизоды ...
  • Король драмы / The King of Dramas // Сезон 1, Эпизоды с 1 по 8 (из 16) (201 ...
  • Информация
    Посетители, находящиеся в группе Гости, не могут оставлять комментарии к данной публикации.