вход на сайт

Имя пользователя :
Пароль :

Восстановление пароля Регистрация
Панда и ёж / Panda and Hedgehog // Сезон 1, Эпизоды с 1 по 16 (из 16) (2012) [HDTVRip, оригинал, софтсаб]
Рейтинг:
(голосов: 1)



[img]{THEME}/images/logopost.png[/img]



Панда и ёж
Panda and Hedgehog


Сезон 1, Эпизоды с 1 по 16 (из 16)

Год выпуска: 2012
Страна: Южная Корея
Производство студии: Channel A
Жанр: романтика, комедия

Режиссёр: Lee Min Chul
В ролях:
~ Ли Дон Хэ в роли Го Сын Чжи
~ Юн Сын А в роли Пан Да Ян
~ Чой Чжин Хёк в роли Чхве Вон Иля
~ Ю Со Ён в роли Кан Ын Би
~ Пак Гын Хён в роли Пак Бён Му
~ Ли Мун Хи в роли Пак Ми Хян
~ Ян Хи Гён в роли Ким Гап Сун
~ Им Ын Хе в роли Пан Да Ны
~ Ю Сын Мок в роли Гиль Дон Гу
~ Хён Сок в роли Чой Чже Гёпа
~ Хон Ё Чжин в роли Хван Чжон Нэ

Перевод: Фансаб-группа Альянс

▼Координатор: J-Faery
Перевод: Cale
Редакция: Daleko
Тайпсеттер: AngelMa
Озвучка: Оригинал
Хардсаб: Нет
Софтсаб: Есть (внешний, русский)

Описание:
История любви парня с колючим, как дикобраз, характером и спокойной, милой, как пандочка, девушки.
Талантливый кондитер Го Сын Чжи вырос в сиротском приюте, поэтому не доверяет людям и держится от других на расстоянии.
Пан Да Ян – жизнерадостная, трудолюбивая девчонка, владелица кафе «Панда».
Как заявляют создатели сериала, нас ждет история, сладкая, как тортик, милая и прелестная, как панда и острая, как колючки.

Качество: HDTVRip
Продолжительность: 1 эпизод ~ 01:00:00

Формат: AVI
Видео кодек: H264
Аудио кодек: AC3
Свойства видео: 800x450 (1.78:1), 29.970 fps, H.264/AVC Encoder ~2013 kbps avg, 0.19 bit/pixel
Свойства аудио:48 kHz, AC3 Dolby Digital, 2/0 (L,R) ch, ~192 kbps

отчет MediaInfo ▼Text
Панда и ЁжикMiss Panda and Porcupine - 01.FHnTV.avi
General
Complete name : Панда и ЁжикMiss Panda and Porcupine - 01.FHnTV.avi
Format : AVI
Format/Info : Audio Video Interleave
File size : 931 MiB
Duration : 58mn 42s
Overall bit rate : 2 217 Kbps
Writing application : PotEncoder
Writing library : VirtualDub build 30009/release
Video #0
ID : 0
Format : AVC
Format/Info : Advanced Video Codec
Format profile : [email protected]
Format settings, CABAC : Yes
Format settings, ReFrames : 3 frames
Codec ID : AVC1
Duration : 58mn 42s
Bit rate : 2 000 Kbps
Width : 800 pixels
Height : 450 pixels
Display aspect ratio : 16:9
Frame rate : 29.970 fps
Color space : YUV
Chroma subsampling : 4:2:0
Bit depth : 8 bits
Scan type : Progressive
Bits/(Pixel*Frame) : 0.185
Stream size : 845 MiB (91%)
Writing library : x264 core 115 r2008bm 4c552d8
Encoding settings : cabac=1 / ref=3 / deblock=1:0:0 / analyse=0x3:0x113 / me=hex / subme=7 / psy=1 / psy_rd=1.00:0.00 / mixed_ref=1 / me_range=16 / chroma_me=1 / trellis=1 / 8x8dct=1 / cqm=0 / deadzone=21,11 / fast_pskip=1 / chroma_qp_offset=-2 / threads=4 / sliced_threads=1 / slices=4 / nr=0 / decimate=1 / interlaced=0 / bluray_compat=0 / constrained_intra=0 / bframes=0 / weightp=2 / keyint=250 / keyint_min=25 / scenecut=40 / intra_refresh=0 / rc=abr / mbtree=0 / bitrate=2000 / ratetol=1.0 / qcomp=0.60 / qpmin=0 / qpmax=69 / qpstep=4 / ip_ratio=1.40 / aq=1:1.00
Audio #1
ID : 1
Format : AC-3
Format/Info : Audio Coding 3
Mode extension : CM (complete main)
Codec ID : 2000
Duration : 58mn 42s
Bit rate mode : Constant
Bit rate : 192 Kbps
Channel(s) : 2 channels
Channel positions : Front: L R
Sampling rate : 48.0 KHz
Bit depth : 16 bits
Compression mode : Lossy
Stream size : 80.6 MiB (9%)
Alignment : Split accross interleaves
Interleave, duration : 33 ms (1.00 video frame)
Interleav
d8fec98bd0093880f8c88660199d906b3fb9de64Панда и ёж / Panda and Hedgehog // Сезон 1, Эпизоды с 1 по 16 (из 16) (2012) [HDTVRip, оригинал, софтсаб] Панда и ёж / Panda and Hedgehog // Сезон 1, Эпизоды с 1 по 16 (из 16) (2012) [HDTVRip, оригинал, софтсаб] " />

Аплоадер: Админ, дата: 14-02-2013, 00:12, торрент скачан: 359 раз

Понравилась раздача? Посмотрите эти:
  • Наследники. Под тяжестью короны / The Heirs // Сезон 1, Эпизоды с 1 по 16 ...
  • Наследники. Под тяжестью короны / The Heirs // Сезон 1, Эпизоды с 1 по 12 ...
  • Наследники. Под тяжестью короны / The Heirs // Сезон 1, Эпизоды с 1 по 8 ( ...
  • Жду любовь / Waiting for love / Сезон 1, Эпизоды с 1 по 2 (из 2) (2013) [HD ...
  • Айрис / IRIS // Сезон 2, Эпизоды с 1 по 12 (из 20) (2013) [HDTVRip, оригин ...
  • Айрис / IRIS // Сезон 2, Эпизоды с 1 по 11 (из 20) (2013) [HDTVRip, оригин ...
  • Айрис / IRIS // Сезон 2, Эпизоды с 1 по 6 (из 20) (2013) [HDTVRip, оригина ...
  • Айрис / IRIS // Сезон 2, Эпизоды с 1 по 4 (из 20) (2013) [HDTVRip, оригина ...
  • Школа 2013 / School 2013 // Сезон 5, Эпизоды с 1 по 16 (из 16) + special ( ...
  • Айрис / IRIS // Сезон 2, Эпизоды с 1 по 3 (из 20) (2013) [HDTVRip, оригина ...
  • Кунг-фу Панда 2 / Kung Fu Panda 2 (Дженнифер Ю, мультфильм, боевик, комеди ...
  • Солнце в объятиях луны / Луна и Солнце / The Moon That Embraces the Sun // ...
  • Не проиграю / Cant lose // Сезон 1, Эпизоды с 1 по 14 (из 18) (2011) [DTVR ...
  • Король драмы / The King of Dramas // Сезон 1, Эпизоды с 1 по 18 (из 18) (20 ...
  • Дождь любви / Love Rain / Love Rides the Rain // Сезон 1, Эпизоды с 1 по 20 ...
  • Король двух сердец / The King 2 Hearts // Сезон 1, Эпизоды с 1 по 20 (из 2 ...
  • Мой мальчик / Ma boy // Сезон 1, Эпизоды с 1 по 3 (из 3) (2012) [TVRip, ори ...
  • Панда и ёж / Panda and Hedgehog // Сезон 1, Эпизоды с 1 по 2 (из 16) (2012) ...
  • Синдром / Syndrome // Сезон 1, Эпизоды с 1 по 20 (из 20) (2012) [HDTVRip, ...
  • Король драмы / The King of Dramas // Сезон 1, Эпизоды с 1 по 8 (из 16) (201 ...
  • Информация
    Посетители, находящиеся в группе Гости, не могут оставлять комментарии к данной публикации.