вход на сайт

Имя пользователя :
Пароль :

Восстановление пароля Регистрация
Школа 2013 / School 2013 // Сезон 5, Эпизоды с 1 по 16 (из 16) + special (2012) [HDTVRip, оригинал, софтсаб]
Рейтинг:
(голосов: 1)



[img]{THEME}/images/logopost.png[/img]



Школа 2013
School 2013

Сезон 5, Эпизоды с 1 по 16 (из 16) + special

Год выпуска: 2012
Страна: Южная Корея
Производство студии: KBS2, Content K
Жанр: школа, молодежный

Режиссёр: Lee Eung Bok, Lee Min Hong
В ролях:
Учителя:
~ Чжан На Ра в роли Чжон Ин Чже
~ Чхве Даниель в роли Кан Се Чхан
~ Ом Хё Соп в роли Ом Тэ Ун
~ О Ён Сил в роли Ю Нам Хи
~ Пак Хэ Ми
~ Ли Хан Ви
Ученики:
~ Ли Чон Сок в роли Ко Нам Сун
~ Пак Се Ён в роли Сон Ха Кён
~ Рю Хё Ён в роли Ли Кан Чжу
~ Ким У Бин в роли Пак Хын Су
~ Чхве Чхан Ёп в роли Ким Мин Ки
~ Ким Чан Хван в роли Хан Ён У
~ Квак Чжон Ук
~ Чжон Ён Чжу

Перевод: Фансаб-группа Bears
▼Перевод: phonyBR, Aigoo, Volha, Litta
Редактор: Bubbbless, Ирис
Координатор: Bubbbless
Озвучка: Оригинал
Хардсаб: Нет
Софтсаб: Есть (внешний, русский)

Описание:
Это пятый сезон популярного молодежного сериала, который был показан с 1999 по 2002 год. В нем рассказывается о реальных проблемах, с которыми подростки сталкиваются в школе.

Качество: HDTVRip
Продолжительность: 1 эпизод ~ 01:05:00

Формат: AVI
Видео кодек: H264
Аудио кодек:
~ для 1-8, 10 серий: MP3
~ для 9, 11-16 серий: AC3
Свойства видео:
~ для 1-8, 10 серий: 1280x720 (1.78:1), 29.970 fps, Intel ITU H.264 ~3031 kbps avg, 0.11 bit/pixel
~ для 9, 11-16 серий: 1280x720 (1.78:1), 29.970 fps, H.264/AVC Encoder ~2725 kbps avg, 0.10 bit/pixel
Свойства аудио:
~ для 1-8, 10 серий: 48 kHz, MPEG Layer 3, 2 ch, ~192.00 kbps avg
~ для 9, 11-16 серий: 48 kHz, AC3 Dolby Digital, 2/0 (L,R) ch, ~192 kbps

отчет MediaInfo ▼
1 серия ▼Text
School_2013School_2013.E01.HDTV.X264.720p-Bears.avi
General
Complete name : School_2013School_2013.E01.HDTV.X264.720p-Bears.avi
Format : AVI
Format/Info : Audio Video Interleave
File size : 1.41 GiB
Duration : 1h 2mn
Overall bit rate : 3 235 Kbps
Writing application :
Writing library : VirtualDub build 28292/release
Video #0
ID : 0
Format : AVC
Format/Info : Advanced Video Codec
Format profile : [email protected]
Format settings, CABAC : Yes
Format settings, ReFrames : 4 frames
Format settings, GOP : M=3, N=60
Codec ID : H264
Duration : 1h 2mn
Bit rate : 3 031 Kbps
Width : 1 280 pixels
Height : 720 pixels
Display aspect ratio : 16:9
Frame rate : 29.970 fps
Color space : YUV
Chroma subsampling : 4:2:0
Bit depth : 8 bits
Scan type : Progressive
Bits/(Pixel*Frame) : 0.110
Stream size : 1.32 GiB (94%)
Audio #1
ID : 1
Format : MPEG Audio
Format version : Version 1
Format profile : Layer 3
Mode : Joint stereo
Mode extension : MS Stereo
Codec ID : 55
Codec ID/Hint : MP3
Duration : 1h 2mn
Bit rate mode : Constant
Bit rate : 192 Kbps
Channel(s) : 2 channels
Sampling rate : 48.0 KHz
Compression mode : Lossy
Delay relative to video : 9ms
Stream size : 85.8 MiB (6%)
Alignment : Split accross interleaves
Interleave, duration : 33 ms (1.00 video frame)
Interleave, preload duration : 500 ms
Writing library : LAME3.98.2
9 серия ▼Text
School_2013School_2013.E09.HDTV.X264.720p-Bears.avi
General
Complete name : School_2013School_2013.E09.HDTV.X264.720p-Bears.avi
Format : AVI
Format/Info : Audio Video Interleave
File size : 1.38 GiB
Duration : 1h 7mn
Overall bit rate : 2 929 Kbps
Movie name : ЗР±і 2013 (9Иё)
f98d81855a6c375b9cf97af4cbe294aeb0031280Школа 2013 / School 2013 // Сезон 5, Эпизоды с 1 по 16 (из 16) + special (2012) [HDTVRip, оригинал, софтсаб] Школа 2013 / School 2013 // Сезон 5, Эпизоды с 1 по 16 (из 16) + special (2012) [HDTVRip, оригинал, софтсаб] " />

Аплоадер: Админ, дата: 5-02-2013, 02:14, торрент скачан: 359 раз

Понравилась раздача? Посмотрите эти:
  • Акула / Sangeo / Shark // Сезон 1, Эпизоды с 1 по 20 (из 20) (2013) [HDTVRi ...
  • Наследники. Под тяжестью короны / The Heirs // Сезон 1, Эпизоды с 1 по 16 ...
  • Наследники. Под тяжестью короны / The Heirs // Сезон 1, Эпизоды с 1 по 12 ...
  • Наследники. Под тяжестью короны / The Heirs // Сезон 1, Эпизоды с 1 по 8 ( ...
  • Жду любовь / Waiting for love / Сезон 1, Эпизоды с 1 по 2 (из 2) (2013) [HD ...
  • Повелитель солнца / Joogoonui Taeyang / The Master’s sun // Сезон 1, Эпизод ...
  • Журнал Лиги Чемпионов 2013-14 / НТВ+ [31.08.2013, 720p, x264, RU, HDTVRip]
  • Чемпионат Германии 2013-14 / 4-й тур / Preview / НТВ+ [30.08.2013, 720p, x2 ...
  • Богиня огня Чжон И / The Goddess of Fire, Jung Yi / Сезон 1, Эпизоды с 1 по ...
  • Чемпионат Германии 2013-14 / 3-й тур / Preview / НТВ+ [23.08.2013, 720p, x2 ...
  • Книга семьи Гу / Gu Family Book // Сезон 1, Эпизоды с 1 по 24 (из 24) (201 ...
  • Книга семьи Гу / Gu Family Book // Сезон 1, Эпизоды с 1 по 14 (из 24) (201 ...
  • Книга семьи Гу / Gu Family Book // Сезон 1, Эпизоды с 1 по 8 (из 24) (2013 ...
  • Книга семьи Гу / Gu Family Book // Сезон 1, Эпизоды с 1 по 4 (из 24) (2013 ...
  • Айрис / IRIS // Сезон 2, Эпизоды с 1 по 12 (из 20) (2013) [HDTVRip, оригин ...
  • Айрис / IRIS // Сезон 2, Эпизоды с 1 по 11 (из 20) (2013) [HDTVRip, оригин ...
  • Айрис / IRIS // Сезон 2, Эпизоды с 1 по 6 (из 20) (2013) [HDTVRip, оригина ...
  • Айрис / IRIS // Сезон 2, Эпизоды с 1 по 4 (из 20) (2013) [HDTVRip, оригина ...
  • Панда и ёж / Panda and Hedgehog // Сезон 1, Эпизоды с 1 по 16 (из 16) (2012 ...
  • Айрис / IRIS // Сезон 2, Эпизоды с 1 по 3 (из 20) (2013) [HDTVRip, оригина ...
  • Пир богов / Feast of the Gods // Сезон 1, Эпизоды с 1 по 32 (из 32) (2012) ...
  • Король двух сердец / The King 2 Hearts // Сезон 1, Эпизоды с 1 по 20 (из 2 ...
  • Возлюбленный королевы Инхён / Inhyeon Wanghu-ui Namja / Queen In Hyun’s Man ...
  • Панда и ёж / Panda and Hedgehog // Сезон 1, Эпизоды с 1 по 2 (из 16) (2012) ...
  • Тысячный мужчина / The Thousandth Man // Сезон 1, Эпизоды с 1 по 8 (из 8) ( ...
  • Информация
    Посетители, находящиеся в группе Гости, не могут оставлять комментарии к данной публикации.