вход на сайт

Имя пользователя :
Пароль :

Восстановление пароля Регистрация
Айрис / IRIS // Сезон 2, Эпизоды с 1 по 12 (из 20) (2013) [HDTVRip, оригинал, софтсаб]
Рейтинг:
(голосов: 1)



[img]{THEME}/images/logopost.png[/img]



Айрис
IRIS

Сезон 2, Эпизоды с 1 по 12 (из 20)

Год выпуска: 2013
Страна: Южная Корея
Производство студии: KBS2
Жанр: боевик, триллер, драма, романтика

Режиссёр: Pyo Min Soo, Kim Tae Hoon
В ролях:
~ Jang Hyuk в роли Yoo Gun
~ Lee Da Hae в роли Ji Soo Yeon
~ Lee Bum Soo в роли Yoo Joong Won
~ Oh Yun Soo в роли Choi Min
~ Yoon Doo Joon в роли Seo Hyun Woo
~ Im Soo Hyang в роли Kim Yeon Hwa
~ Lee Joon в роли Yoon Si Hyuk
~ Kim Young Chul в роли Baek San (NSS vice-director)
~ Jung Suk Won в роли Baek San (Young)

Перевод: Фансаб-группа Bears

Озвучка: Оригинал
Хардсаб: Нет
Софтсаб: Есть (внешний, русский)

Описание:
История продолжается спустя три года после смерти лучшего агента и руководителя группы "NSS" Ким Хён Чжуна (Ли Бён Хон). Завеса тайны, окружающая его смерть, наконец-то приподнимется. Вице-директор "NSS" Пэк Сан (Ким Ён-Чхоль) был арестован из-за своей деятельности с секретной организацией "IRIS". В общих чертах будет обрисована история таинственной группы господина Блэка, которая управляла всем через Пэк Сана. Теперь у "NSS" новый руководитель группы - Ю Кон (Чан Хёк), который старается приблизиться к "IRIS" при помощи агентов Чжи Су-Ён (Ли Да-Хэ) и Со Хён-У (Юн Ду-Джун).

Качество: HDTVRip
Продолжительность: 1 эпизод ~ 01:05:00

Формат: AVI
Видео кодек: XviD
Аудио кодек: MP3
Свойства видео: 800x450 (1.78:1), 29.970 fps, XviD MPEG-4 ~1500 kbps avg, 0.14 bit/pixel
Свойства аудио:48 kHz, MPEG Layer 3, 2 ch, ~128.00 kbps avg

отчет MediaInfo ▼Text
Айрис 2Iris.2.E01..avi
General
Complete name : Айрис 2Iris.2.E01..avi
Format : AVI
Format/Info : Audio Video Interleave
File size : 733 MiB
Duration : 1h 2mn
Overall bit rate : 1 640 Kbps
Writing application :
Writing library : VirtualDub build 28292/release
Video #0
ID : 0
Format : MPEG-4 Visual
Format profile : Advanced [email protected]
Format settings, BVOP : 2
Format settings, QPel : No
Format settings, GMC : No warppoints
Format settings, Matrix : Default (H.263)
Muxing mode : Packed bitstream
Codec ID : XVID
Codec ID/Hint : XviD
Duration : 1h 2mn
Bit rate : 1 500 Kbps
Width : 800 pixels
Height : 450 pixels
Display aspect ratio : 16:9
Frame rate : 29.970 fps
Color space : YUV
Chroma subsampling : 4:2:0
Bit depth : 8 bits
Scan type : Progressive
Compression mode : Lossy
Bits/(Pixel*Frame) : 0.139
Stream size : 671 MiB (91%)
Writing library : XviD 64
Audio #1
ID : 1
Format : MPEG Audio
Format version : Version 1
Format profile : Layer 3
Mode : Joint stereo
Mode extension : MS Stereo
Codec ID : 55
Codec ID/Hint : MP3
Duration : 1h 2mn
Bit rate mode : Constant
Bit rate : 128 Kbps
Channel(s) : 2 channels
Sampling rate : 48.0 KHz
Compression mode : Lossy
Delay relative to video : 12ms
Stream size : 57.2 MiB (8%)
Alignment : Split accross interleaves
Interleave, duration : 33 ms (1.00 video frame)
Interleave, preload duration : 500 ms
Writing library : LAME3.98.2





e43aa20e297d61918feb3faa7d1588d1145435f0Айрис / IRIS // Сезон 2, Эпизоды с 1 по 12 (из 20) (2013) [HDTVRip, оригинал, софтсаб] Айрис / IRIS // Сезон 2, Эпизоды с 1 по 12 (из 20) (2013) [HDTVRip, оригинал, софтсаб] " />

Аплоадер: Админ, дата: 3-04-2013, 00:00, торрент скачан: 359 раз

Понравилась раздача? Посмотрите эти:
  • Наследники. Под тяжестью короны / The Heirs // Сезон 1, Эпизоды с 1 по 16 ...
  • Наследники. Под тяжестью короны / The Heirs // Сезон 1, Эпизоды с 1 по 12 ...
  • Наследники. Под тяжестью короны / The Heirs // Сезон 1, Эпизоды с 1 по 8 ( ...
  • Чемпионат Италии 2012-13 / 36-й тур / Рома — Кьево / НТВ+ [07.05.2013, SD, ...
  • Айрис 2 / Airiseu 2 / IRIS 2 // Сезон 2, Эпизоды с 1 по 20 (из 20) (2013) [ ...
  • Айрис 2 / Airiseu 2 / IRIS 2 // Сезон 2, Эпизоды с 1 по 18 (из 20) (2013) [ ...
  • Айрис 2 / Airiseu 2 / IRIS 2 // Сезон 2, Эпизоды с 1 по 16 (из 20) (2013) [ ...
  • Айрис / IRIS // Сезон 2, Эпизоды с 1 по 11 (из 20) (2013) [HDTVRip, оригин ...
  • Айрис / IRIS // Сезон 2, Эпизоды с 1 по 6 (из 20) (2013) [HDTVRip, оригина ...
  • Айрис / IRIS // Сезон 2, Эпизоды с 1 по 4 (из 20) (2013) [HDTVRip, оригина ...
  • Школа 2013 / School 2013 // Сезон 5, Эпизоды с 1 по 16 (из 16) + special ( ...
  • Айрис / IRIS // Сезон 2, Эпизоды с 1 по 3 (из 20) (2013) [HDTVRip, оригина ...
  • Чемпионат Европы 2012 / Группа C / 1-й тур / Ирландия — Хорватия / ТРК Футб ...
  • Олимпиада 2012 / Мужчины / Группа D / 1-й тур / Испания — Япония / НТВ+ [Фу ...
  • Олимпиада 2012 / Футбол / Мужчины / Группа A / 3-й тур / Великобритания - У ...
  • Пир богов / Feast of the Gods // Сезон 1, Эпизоды с 1 по 32 (из 32) (2012) ...
  • Война цветов / Tazza / War of Flowers // Сезон 1, Эпизоды с 1 по 21 (из 21) ...
  • Дождь любви / Love Rain / Love Rides the Rain // Сезон 1, Эпизоды с 1 по 20 ...
  • Король двух сердец / The King 2 Hearts // Сезон 1, Эпизоды с 1 по 20 (из 2 ...
  • NBA Finals 2012 / Sportscenter / В преддверии 3-ей игры / Viasat Sport [Бас ...
  • Чемпионат России 2012-13 / 1-й тур / Мордовия - Локомотив / НТВ+ [Футбол, 2 ...
  • Ну-ка, улыбнись / Smile, You // Сезон 1, Эпизоды с 1 по 45 (из 45) (2009) [ ...
  • Олимпиада 2012 / Женщины, Мужчины / Плавание / Квалификация / НТВ+ [30.07.2 ...
  • Товарищеский матч / Звёзды Малайзии - Манчестер Сити / ТК Футбол [Футбол, 2 ...
  • Панда и ёж / Panda and Hedgehog // Сезон 1, Эпизоды с 1 по 2 (из 16) (2012) ...
  • Информация
    Посетители, находящиеся в группе Гости, не могут оставлять комментарии к данной публикации.