вход на сайт

Имя пользователя :
Пароль :

Восстановление пароля Регистрация
Наследники. Под тяжестью короны / The Heirs // Сезон 1, Эпизоды с 1 по 8 (из 20) (2013) [HDTVRip, оригинал, софтсаб]
Рейтинг:
(голосов: 1)



[img]{THEME}/images/logopost.png[/img]



Наследники. Под тяжестью короны
The Heirs

Сезон 1, Эпизоды с 1 по 8 (из 20)

Год выпуска: 2013
Страна: Южная Корея
Производство студии: SBS
Жанр: романтика, комедия

Режиссёр: Kang Sin Hyo
В ролях:
~ Lee Min Ho в роли Ким Тан
~ Park Shin Hye в роли Чха Ын Сан
~ Kim Woo Bin в роли Чхве Юн До
~ Kim Ji Won в ролиРейчел Ю
~ Kim Sung Ryung в роли Хан Ги Э
~ Choi Jin Hyuk в ролиКим Вон
~ Yoon Son Ha в роли Эстер Ли

Перевод: Фансаб-группа Альянс

Озвучка: Оригинал
Хардсаб: Нет
Софтсаб: Есть (внешний, русский)

Описание:
Романтическая комедия о студентах старшей школы, принадлежащих к самому богатому 1% высшего общества. Любовная история закручивается вокруг богатых наследников и девушки из низшего класса.

Качество: HDTVRip
Продолжительность: 1 эпизод ~ 01:05:00

Формат: AVI
Видео кодек: H264
Аудио кодек: MP3
Свойства видео: 800x450 (1.78:1), 29.970 fps, Intel ITU H.264 ~1492 kbps avg, 0.14 bit/pixel
Свойства аудио:48 kHz, MPEG Layer 3, 2 ch, ~192.00 kbps avg

отчет MediaInfo ▼Text
The Heirs[alliance] The Heirs E01.avi
General
Complete name : The Heirs[alliance] The Heirs E01.avi
Format : AVI
Format/Info : Audio Video Interleave
File size : 766 MiB
Duration : 1h 3mn
Overall bit rate : 1 699 Kbps
Movie name : »ујУАЪµй.E01.131009.HDTV.H264.450p-LIMO
Writing application : VirtualDubMod 1.5.10.2 (build 2540/release)
Video #0
ID : 0
Format : AVC
Format/Info : Advanced Video Codec
Format profile : [email protected]
Format settings, CABAC : Yes
Format settings, ReFrames : 4 frames
Codec ID : H264
Duration : 1h 3mn
Bit rate : 1 500 Kbps
Width : 800 pixels
Height : 450 pixels
Display aspect ratio : 16:9
Frame rate mode : Variable
Frame rate : 29.970 fps
Color space : YUV
Chroma subsampling : 4:2:0
Bit depth : 8 bits
Scan type : Progressive
Bits/(Pixel*Frame) : 0.139
Stream size : 673 MiB (88%)
Writing library : x264 core 112
Encoding settings : cabac=1 / ref=3 / deblock=1:-1:-1 / analyse=0x3:0x113 / me=hex / subme=6 / psy=1 / psy_rd=1.00:1.00 / mixed_ref=1 / me_range=16 / chroma_me=1 / trellis=1 / 8x8dct=1 / cqm=0 / deadzone=21,11 / fast_pskip=0 / chroma_qp_offset=-4 / threads=12 / sliced_threads=0 / nr=0 / decimate=1 / interlaced=0 / constrained_intra=0 / bframes=3 / b_pyramid=2 / b_adapt=1 / b_bias=1 / direct=3 / weightb=1 / open_gop=0 / weightp=2 / keyint=299 / keyint_min=25 / scenecut=1 / intra_refresh=0 / rc_lookahead=40 / rc=abr / mbtree=1 / bitrate=1500 / ratetol=1.0 / qcomp=0.60 / qpmin=1 / qpmax=51 / qpstep=4 / vbv_maxrate=1950 / vbv_bufsize=1950 / ip_ratio=1.40 / aq=1:1.00 / nal_hrd=none
Audio #1
ID : 1
Format : MPEG Audio
Format version : Version 1
Format profile : Layer 3
Mode : Joint stereo
Codec ID : 55
Codec ID/Hint : MP3
Duration : 1h 3mn
Bit rate mode : Constant
Bit rate : 192 Kbps
Channel(s) : 2 channels
Sampling rate : 48.0 KHz
Compression mode : Lossy
Stream size : 86.6 MiB (11%)
Alignment : Aligned on interleaves
Interleave, duration : 24 ms (0.72 video frame)
Writing library : LAME3.98
Language : Undefined


The Heirs OST / Наследники ОСТ




495d51d5ef02a859b121b6c2899c707fd2afe191Наследники. Под тяжестью короны / The Heirs // Сезон 1, Эпизоды с 1 по 8 (из 20) (2013) [HDTVRip, оригинал, софтсаб] Наследники. Под тяжестью короны / The Heirs // Сезон 1, Эпизоды с 1 по 8 (из 20) (2013) [HDTVRip, оригинал, софтсаб] " />

Аплоадер: Админ, дата: 8-11-2013, 20:07, торрент скачан: 359 раз

Понравилась раздача? Посмотрите эти:
  • Наследники. Под тяжестью короны / The Heirs / Сезон 1, Эпизоды с 1 по 20 (и ...
  • Наследники. Под тяжестью короны / The Heirs // Сезон 1, Эпизоды с 1 по 16 ...
  • Наследники / The Heirs // Сезон 1, Эпизоды с 1 по 20 (из 20) (2013) [HDTVRi ...
  • Наследники. Под тяжестью короны / The Heirs / Сезон 1, Эпизоды с 1 по 16 (и ...
  • Наследники. Под тяжестью короны / The Heirs // Сезон 1, Эпизоды с 1 по 12 ...
  • Наследники / The Heirs // Сезон 1, Эпизоды с 1 по 15 (из 20) (2013) [HDTVRi ...
  • Наследники / The Heirs // Сезон 1, Эпизоды с 1 по 10 (из 20) (2013) [HDTVRi ...
  • Наследники. Под тяжестью короны / The Heirs / Сезон 1, Эпизоды с 1 по 10 (и ...
  • Жду любовь / Waiting for love / Сезон 1, Эпизоды с 1 по 2 (из 2) (2013) [HD ...
  • Школа 2013 / School 2013 // Сезон 5, Эпизоды с 1 по 16 (из 16) + special ( ...
  • Панда и ёж / Panda and Hedgehog // Сезон 1, Эпизоды с 1 по 16 (из 16) (2012 ...
  • Не проиграю / Cant lose // Сезон 1, Эпизоды с 1 по 14 (из 18) (2011) [DTVR ...
  • Король драмы / The King of Dramas // Сезон 1, Эпизоды с 1 по 18 (из 18) (20 ...
  • Mylene Farmer / Du Temps [2011, Pop, HDTVRip]
  • Mylene Farmer / Bleu Noir [2011, Pop, HDTVRip]
  • Дождь любви / Love Rain / Love Rides the Rain // Сезон 1, Эпизоды с 1 по 20 ...
  • Король двух сердец / The King 2 Hearts // Сезон 1, Эпизоды с 1 по 20 (из 2 ...
  • Панда и ёж / Panda and Hedgehog // Сезон 1, Эпизоды с 1 по 2 (из 16) (2012) ...
  • Синдром / Syndrome // Сезон 1, Эпизоды с 1 по 20 (из 20) (2012) [HDTVRip, ...
  • Король драмы / The King of Dramas // Сезон 1, Эпизоды с 1 по 8 (из 16) (201 ...
  • Информация
    Посетители, находящиеся в группе Гости, не могут оставлять комментарии к данной публикации.