вход на сайт

Имя пользователя :
Пароль :

Восстановление пароля Регистрация
Король драмы / The King of Dramas // Сезон 1, Эпизоды с 1 по 8 (из 16) (2012) [HDTVRip, оригинал, софтсаб]
Рейтинг:
(голосов: 1)



[img]{THEME}/images/logopost.png[/img]



Король драмы
The King of Dramas

Сезон 1, Эпизоды с 1 по 8 (из 16)

Год выпуска: 2012
Страна: Южная Корея
Производство студии: SBS
Жанр: романтика, комедия

Режиссёр: Hong Sung Chang
В ролях:
~ Kim Myung Min в роли Anthony Kim
~ Jung Ryu Won в роли Lee Go Eun
~ Choi Si Won в роли Kang Hyun Min
~ Oh Ji Eun в роли Sung Min Ah
~ Jung Man Sik в роли Oh Jin Wan

Перевод: Фансаб-группа Bears
▼Перевод: Narvskaya, Sayori
Редакция: Narvskaya
Озвучка: Оригинал
Хардсаб: Нет
Софтсаб: Есть (внешний, русский)

Описание:
Сюжет "Короля драмы" крутится вокруг индустрии развлечений и производства дорам.
Главный герой, Энтони Ким (Ким Мён Мин), живёт ради денег и успеха и способен ради них на многое. Он превращает в золото всё, к чему прикасается, и делает из дорам очень доходный бизнес. Его пути пересекутся со сценаристкой-мечтательницей Ли Го Ын (Чон Рё Вон), чей взгляд на дорамы кардинально отличается от расчётливого Энтони. Не стоит забывать про красавца-актёра, ужасно популярного, но вредного и самоуверенного - Кан Хён Мина (Шивон). Что же победит: чувства или деньги?

Качество: HDTVRip
Продолжительность: 1 эпизод ~ 01:05:00

Формат: AVI
Видео кодек: H264
Аудио кодек: AC3
Свойства видео: 1280x720 (1.78:1), 29.970 fps, H.264/AVC Encoder ~2715 kbps avg, 0.10 bit/pixel
Свойства аудио:48 kHz, AC3 Dolby Digital, 2/0 (L,R) ch, ~192 kbps

отчет MediaInfo ▼Text
Король драмыKing.of.Dramas.E01..avi
General
Complete name : Король драмыKing.of.Dramas.E01..avi
Format : AVI
Format/Info : Audio Video Interleave
File size : 1.29 GiB
Duration : 1h 3mn
Overall bit rate : 2 919 Kbps
Mastered date : 2012-11-06
Writing application : AllEncoding 1.0
Video #0
ID : 0
Format : AVC
Format/Info : Advanced Video Codec
Format profile : [email protected]
Format settings, CABAC : Yes
Format settings, ReFrames : 2 frames
Codec ID : H264
Duration : 1h 3mn
Bit rate : 2 700 Kbps
Width : 1 280 pixels
Height : 720 pixels
Display aspect ratio : 16:9
Frame rate : 29.970 fps
Color space : YUV
Chroma subsampling : 4:2:0
Bit depth : 8 bits
Scan type : Progressive
Bits/(Pixel*Frame) : 0.098
Stream size : 1.20 GiB (93%)
Writing library : x264 core 128 r2216kMod 198a7ea
Encoding settings : cabac=1 / ref=1 / deblock=1:0:0 / analyse=0x3:0x113 / me=hex / subme=4 / psy=1 / fade_compensate=0.00 / psy_rd=0.00:0.00 / mixed_ref=0 / me_range=16 / chroma_me=0 / trellis=1 / 8x8dct=1 / cqm=0 / deadzone=21,11 / fast_pskip=1 / chroma_qp_offset=0 / threads=8 / lookahead_threads=8 / sliced_threads=1 / slices=8 / nr=0 / decimate=1 / interlaced=0 / bluray_compat=0 / constrained_intra=0 / bframes=2 / b_pyramid=0 / b_adapt=1 / b_bias=0 / direct=1 / weightb=1 / open_gop=0 / weightp=2 / keyint=250 / keyint_min=25 / scenecut=40 / intra_refresh=0 / rc=abr / mbtree=0 / bitrate=2700 / ratetol=1.0 / qcomp=0.60 / qpmin=10 / qpmax=51 / qpstep=4 / ip_ratio=1.40 / pb_ratio=1.30 / aq=1:1.00
Audio #1
ID : 1
Format : AC-3
Format/Info : Audio Coding 3
Mode extension : CM (complete main)
Codec ID : 2000
Duration : 1h 3mn
Bit rate mode : Constant
Bit rate : 192 Kbps
Channel(s) : 2 channels
Channel positions : Front: L R
Sampling rate : 48.0 KHz
Bit depth : 16 bits
Compression mode : Lossy
Stream size : 86.8 MiB (7%)
Alignment : Aligned on interleaves
Interleave, duration : 33 ms (1.00 video fram
6d08dd0b260a44f68dc2a1daff24189316905d88Король драмы / The King of Dramas // Сезон 1, Эпизоды с 1 по 8 (из 16) (2012) [HDTVRip, оригинал, софтсаб] Король драмы / The King of Dramas // Сезон 1, Эпизоды с 1 по 8 (из 16) (2012) [HDTVRip, оригинал, софтсаб] " />

Аплоадер: Админ, дата: 1-12-2012, 14:28, торрент скачан: 359 раз

Понравилась раздача? Посмотрите эти:
  • Наследники. Под тяжестью короны / The Heirs // Сезон 1, Эпизоды с 1 по 16 ...
  • Наследники. Под тяжестью короны / The Heirs // Сезон 1, Эпизоды с 1 по 12 ...
  • Наследники. Под тяжестью короны / The Heirs // Сезон 1, Эпизоды с 1 по 8 ( ...
  • Школа 2013 / School 2013 // Сезон 5, Эпизоды с 1 по 16 (из 16) + special ( ...
  • Панда и ёж / Panda and Hedgehog // Сезон 1, Эпизоды с 1 по 16 (из 16) (2012 ...
  • Солнце в объятиях луны / Луна и Солнце / The Moon That Embraces the Sun // ...
  • Романтика без правил / Wild Romance // Сезон 1, Эпизоды с 1 по 16 (из 16) ( ...
  • Не проиграю / Cant lose // Сезон 1, Эпизоды с 1 по 14 (из 18) (2011) [DTVR ...
  • Человек чести / Man of Honor / Glory Jane // Сезон 1, Эпизоды с 1 по 24 (из ...
  • Король драмы / The King of Dramas // Сезон 1, Эпизоды с 1 по 18 (из 18) (20 ...
  • (2012) VA / Король драмы / The King of Dramas (OST) [MP3, 320/CBR]
  • Mylene Farmer / Du Temps [2011, Pop, HDTVRip]
  • Mylene Farmer / Bleu Noir [2011, Pop, HDTVRip]
  • Дождь любви / Love Rain / Love Rides the Rain // Сезон 1, Эпизоды с 1 по 20 ...
  • Madonna / Girl Gone Wild [2012, Pop, HDTV]
  • Король двух сердец / The King 2 Hearts // Сезон 1, Эпизоды с 1 по 20 (из 2 ...
  • Мой мальчик / Ma boy // Сезон 1, Эпизоды с 1 по 3 (из 3) (2012) [TVRip, ори ...
  • Панда и ёж / Panda and Hedgehog // Сезон 1, Эпизоды с 1 по 2 (из 16) (2012) ...
  • Синдром / Syndrome // Сезон 1, Эпизоды с 1 по 20 (из 20) (2012) [HDTVRip, ...
  • (2012) VA / Король драмы / The King of Dramas (OST) [MP3, 320/CBR]
  • Информация
    Посетители, находящиеся в группе Гости, не могут оставлять комментарии к данной публикации.