вход на сайт

Имя пользователя :
Пароль :

Восстановление пароля Регистрация
Тысячный мужчина / The Thousandth Man // Сезон 1, Эпизоды с 1 по 8 (из 8) (2012) [HDTVRip, оригинал, софтсаб]
Рейтинг:
(голосов: 1)



[img]{THEME}/images/logopost.png[/img]



Тысячный мужчина
The Thousandth Man

Сезон 1, Эпизоды с 1 по 8 (из 8)

Год выпуска: 2012
Страна: Южная Корея
Производство студии: MBC
Жанр: фэнтези, романтика, комедия

Режиссёр: Kang Chul Woo, Choi Hwa Jin
В ролях:
~ Кан Е Вон - Ку Ми Чжин
~ Ли Чон Хи - Ким Ын Сок
~ Чон Ми Сон - Ку Ми Сон
~ Хё Мин - Ку Ми Мо
~ Со Кён Сок - Со Кён Сок
~ Пак Чон Хак - Пак Чон Хак

Перевод: Фансаб-группа Альянс

▼Перевод: Lady Flame, AngelMa

Озвучка: Оригинал
Хардсаб: Нет
Софтсаб: Есть (внешний, русский)

Описание:
Чтобы стать человеком, кумихо должна съесть печень тысячи мужчин, причем каждый должен искренне любить ее. Ку Ми Чжин уже получила печень 999 мужчин и ей осталось достать еще одну, и на это у нее есть всего ничего - 3 месяца. И кажется, вот оно - Ми Чжин нашла того, кто влюбляется в нее и готов пожертвовать свою печень. Но тут начинается самое интересное - страстное желание Ми Чжин стать человеком сталкивается с не менее страстным чувством - любовью. Чем же закончится это противостояние?

Качество: HDTVRip
Продолжительность: 1 эпизод ~ 01:05:00

Формат: AVI
Видео кодек: H264
Аудио кодек: MP3
Свойства видео: 800x450 (1.78:1), 30 fps,~1761 kbps avg, 0.16 bit/pixel
Свойства аудио:48 kHz, 2 ch, ~128.00 kbps avg

отчет MediaInfo ▼Text
The Thousandth ManThe Thousandth Man ep1-2.avi
General
Complete name :The Thousandth ManThe Thousandth Man ep1-2.avi
Format : AVI
Format/Info : Audio Video Interleave
File size : 876 MiB
Duration : 1h 4mn
Overall bit rate : 1 903 Kbps
Writing application : Lavf53.3.0
Video #0
ID : 0
Format : AVC
Format/Info : Advanced Video Codec
Format profile : [email protected]
Format settings, CABAC : No
Format settings, ReFrames : 1 frame
Codec ID : H264
Duration : 1h 4mn
Bit rate : 1 761 Kbps
Width : 800 pixels
Height : 450 pixels
Display aspect ratio : 16:9
Frame rate mode : Variable
Frame rate : 30.000 fps
Color space : YUV
Chroma subsampling : 4:2:0
Bit depth : 8 bits
Scan type : Progressive
Bits/(Pixel*Frame) : 0.163
Stream size : 811 MiB (93%)
Audio #1
ID : 1
Format : MPEG Audio
Format version : Version 1
Format profile : Layer 3
Mode : Joint stereo
Mode extension : MS Stereo
Codec ID : 55
Codec ID/Hint : MP3
Duration : 1h 4mn
Bit rate mode : Constant
Bit rate : 128 Kbps
Channel(s) : 2 channels
Sampling rate : 48.0 KHz
Compression mode : Lossy
Stream size : 58.9 MiB (7%)
Alignment : Aligned on interleaves
Interleave, duration : 24 ms (0.72 video frame)
Writing library : LAME

c32222000b7472690273933a0e7483dc1379faefТысячный мужчина / The Thousandth Man // Сезон 1, Эпизоды с 1 по 8 (из 8) (2012) [HDTVRip, оригинал, софтсаб] Тысячный мужчина / The Thousandth Man // Сезон 1, Эпизоды с 1 по 8 (из 8) (2012) [HDTVRip, оригинал, софтсаб] " />

Аплоадер: Админ, дата: 31-10-2012, 00:57, торрент скачан: 359 раз

Понравилась раздача? Посмотрите эти:
  • Акула / Sangeo / Shark // Сезон 1, Эпизоды с 1 по 20 (из 20) (2013) [HDTVRi ...
  • Наследники. Под тяжестью короны / The Heirs // Сезон 1, Эпизоды с 1 по 16 ...
  • Наследники. Под тяжестью короны / The Heirs // Сезон 1, Эпизоды с 1 по 12 ...
  • Наследники. Под тяжестью короны / The Heirs // Сезон 1, Эпизоды с 1 по 8 ( ...
  • Жду любовь / Waiting for love / Сезон 1, Эпизоды с 1 по 2 (из 2) (2013) [HD ...
  • Айрис / IRIS // Сезон 2, Эпизоды с 1 по 12 (из 20) (2013) [HDTVRip, оригин ...
  • Айрис / IRIS // Сезон 2, Эпизоды с 1 по 11 (из 20) (2013) [HDTVRip, оригин ...
  • Айрис / IRIS // Сезон 2, Эпизоды с 1 по 6 (из 20) (2013) [HDTVRip, оригина ...
  • Айрис / IRIS // Сезон 2, Эпизоды с 1 по 4 (из 20) (2013) [HDTVRip, оригина ...
  • Школа 2013 / School 2013 // Сезон 5, Эпизоды с 1 по 16 (из 16) + special ( ...
  • Панда и ёж / Panda and Hedgehog // Сезон 1, Эпизоды с 1 по 16 (из 16) (2012 ...
  • Айрис / IRIS // Сезон 2, Эпизоды с 1 по 3 (из 20) (2013) [HDTVRip, оригина ...
  • Молодежный чемпионат мира 2012 (U-20). Четвертьфинал: Россия - Чехия [02.01 ...
  • Чемпионат Европы 2012 / Группа C / 1-й тур / Ирландия — Хорватия / ТРК Футб ...
  • Олимпиада 2012 / Мужчины / Группа D / 1-й тур / Испания — Япония / НТВ+ [Фу ...
  • Олимпиада 2012 / Футбол / Мужчины / Группа A / 3-й тур / Великобритания - У ...
  • Machete / Нежность [2011, R&B, HDRip]
  • Чемпионат Англии 2011-12 / 37-й тур / Манчестер Юнайтед - Суонси Сити / Спо ...
  • Король двух сердец / The King 2 Hearts // Сезон 1, Эпизоды с 1 по 20 (из 2 ...
  • Возлюбленный королевы Инхён / Inhyeon Wanghu-ui Namja / Queen In Hyun’s Man ...
  • Товарищеский матч 2012 / АмаЗулу (ЮАР) - Манчестер Юнайтед (Англия) / MU TV ...
  • Олимпиада 2012 / Женщины, Мужчины / Плавание / Квалификация / НТВ+ [30.07.2 ...
  • Панда и ёж / Panda and Hedgehog // Сезон 1, Эпизоды с 1 по 2 (из 16) (2012) ...
  • Синдром / Syndrome // Сезон 1, Эпизоды с 1 по 20 (из 20) (2012) [HDTVRip, ...
  • Я люблю Ли Тэ Ри / Aileobeu Itaeli / I Love Lee Tae Ri // Сезон 1, Эпизоды ...
  • Информация
    Посетители, находящиеся в группе Гости, не могут оставлять комментарии к данной публикации.