вход на сайт

Имя пользователя :
Пароль :

Восстановление пароля Регистрация
Синдром / Syndrome // Сезон 1, Эпизоды с 1 по 20 (из 20) (2012) [HDTVRip, оригинал, софтсаб]
Рейтинг:
(голосов: 1)



[img]{THEME}/images/logopost.png[/img]



Синдром
Sindeulom / Syndrome

Сезон 1, Эпизоды с 1 по 20 (из 20)

Год выпуска: 2012
Страна: Южная Корея
Производство студии: jTBC
Жанр: драма, медицина

Режиссёры: Lee Sung Joo, Go Jae Hyun
В ролях:
~ Han Hye Jin в роли Ли Хэ Чжо
~ Song Chang Ui в роли Чха Ё Ук
~ Park Gun Hyung в роли Кан Ын Хён
~ Jo Jae Hyun в роли Чха Тхэ Чжин
~ Kim Sung Ryung в роли О Ын Хи
~ Kim Yoo Suk в роли Мин Сон Чжун

Перевод: Фансаб-группа Samjogo Subbing Squad
▼Перевод: Versia_corp, Murasaki
Бета-перевод: Murasaki
Редакция: Valent
Озвучка: Оригинал
Хардсаб: Нет
Софтсаб: Есть (внешний, русский)

Описание:
Долгое время университетской клиникой управляет семья потомственных нейрохирургов. Профессор О Ын Хи готовится принять пост главы клиники.
Ее сын Чха Ё Ук, выпускник престижного медицинского университета, интерн, не желает идти по стопам родителей и посвятить себя нейрохирургии. Судьба сводит его с Ли Хэ Чжо, талантливым интерном из провинции, которая мечтает о карьере нейрохирурга. Их первая встреча заканчивается ссорой, но потом молодые люди начинают проявлять друг к другу интерес. Однако таинственный доктор Кан Ын Хён тоже имеет виды на Ли Хэ Чжо.

Качество: HDTVRip
Продолжительность: 1 эпизод ~ 01:10:00

Формат: AVI
Видео кодек: H264
Аудио кодек: AC3
Свойства видео: 640x360 (16:9), 29.970 fps, H.264 ~1400 kbps avg, 0.203 bit/pixel
Свойства аудио:48 kHz, AC3 Dolby Digital, 2 ch, ~192.00 kbps avg

отчёт MediaInfo ▼Text
General
Complete name : SyndromeSyndrome.E01.avi
Format : AVI
Format/Info : Audio Video Interleave
File size : 790 MiB
Duration : 1h 8mn
Overall bit rate : 1 608 Kbps
Writing application : PotEncoder
Video #1
ID : 1
Format : AVC
Format/Info : Advanced Video Codec
Format profile : [email protected]
Format settings, CABAC : No
Format settings, ReFrames : 1 frame
Codec ID : H264
Duration : 1h 8mn
Bit rate : 1 400 Kbps
Width : 640 pixels
Height : 360 pixels
Display aspect ratio : 16:9
Frame rate mode : Variable
Frame rate : 29.970 fps
Color space : YUV
Chroma subsampling : 4:2:0
Bit depth : 8 bits
Scan type : Progressive
Bits/(Pixel*Frame) : 0.203
Stream size : 690 MiB (87%)
Writing library : x264 core 112
Encoding settings : cabac=0 / ref=1 / deblock=1:0:0 / analyse=0x1:0x111 / me=dia / subme=1 / psy=1 / psy_rd=0.00:0.00 / mixed_ref=0 / me_range=16 / chroma_me=1 / trellis=0 / 8x8dct=0 / cqm=0 / deadzone=21,11 / fast_pskip=0 / chroma_qp_offset=0 / threads=6 / sliced_threads=0 / nr=0 / decimate=1 / interlaced=0 / constrained_intra=0 / bframes=0 / weightp=0 / keyint=290 / keyint_min=25 / scenecut=0 / intra_refresh=0 / rc_lookahead=40 / rc=abr / mbtree=1 / bitrate=1400 / ratetol=1.0 / qcomp=0.60 / qpmin=10 / qpmax=51 / qpstep=4 / ip_ratio=1.40 / aq=1:1.00
Audio #0
ID : 0
Format : AC-3
Format/Info : Audio Coding 3
Mode extension : CM (complete main)
Codec ID : 2000
Duration : 1h 8mn
Bit rate mode : Constant
Bit rate : 192 Kbps
Channel(s) : 2 channels
Channel positions : Front: L R
Sampling rate : 48.0 KHz
Bit depth : 16 bits
Compression mode : Lossy
Stream size : 94.3 MiB (12%)
Alignment : Aligned on interleaves
Interleave, duration : 33 ms (1.00 video frame)



OST к дораме (2012) U-KISS / Синдром / Syndrome (OST) [MP3, 320/CBR]




11a327a04953e84437927b6f4c47d1e21aaca049Синдром / Syndrome // Сезон 1, Эпизоды с 1 по 20 (из 20) (2012) [HDTVRip, оригинал, софтсаб] Синдром / Syndrome // Сезон 1, Эпизоды с 1 по 20 (из 20) (2012) [HDTVRip, оригинал, софтсаб] " />

Аплоадер: Админ, дата: 24-09-2012, 00:02, торрент скачан: 359 раз

Понравилась раздача? Посмотрите эти:
  • Наследники. Под тяжестью короны / The Heirs // Сезон 1, Эпизоды с 1 по 16 ...
  • Наследники. Под тяжестью короны / The Heirs // Сезон 1, Эпизоды с 1 по 12 ...
  • Наследники. Под тяжестью короны / The Heirs // Сезон 1, Эпизоды с 1 по 8 ( ...
  • Жду любовь / Waiting for love / Сезон 1, Эпизоды с 1 по 2 (из 2) (2013) [HD ...
  • Школа 2013 / School 2013 // Сезон 5, Эпизоды с 1 по 16 (из 16) + special ( ...
  • Панда и ёж / Panda and Hedgehog // Сезон 1, Эпизоды с 1 по 16 (из 16) (2012 ...
  • Футбольный клуб / Чемпионат Европы 2012 / НТВ+ [Футбол, 08.06.2012, HDTVRip ...
  • Чемпионат Европы 2012 / Группа C / 1-й тур / Ирландия — Хорватия / Спорт 1 ...
  • Формула 1. Сезон 2012. Этап 13 из 20. Гран-При Италии, Квалификация. [2012 ...
  • Солнце в объятиях луны / Луна и Солнце / The Moon That Embraces the Sun // ...
  • Не проиграю / Cant lose // Сезон 1, Эпизоды с 1 по 14 (из 18) (2011) [DTVR ...
  • Человек чести / Man of Honor / Glory Jane // Сезон 1, Эпизоды с 1 по 24 (из ...
  • Король драмы / The King of Dramas // Сезон 1, Эпизоды с 1 по 18 (из 18) (20 ...
  • Mylene Farmer / Du Temps [2011, Pop, HDTVRip]
  • Mylene Farmer / Bleu Noir [2011, Pop, HDTVRip]
  • Амнезия / Amnesia // Сезон 1, Эпизоды с 1 по 2 (из 12) (2013) [HDTVRip, ор ...
  • Дождь любви / Love Rain / Love Rides the Rain // Сезон 1, Эпизоды с 1 по 20 ...
  • Madonna / Girl Gone Wild [2012, Pop, HDTV]
  • Король двух сердец / The King 2 Hearts // Сезон 1, Эпизоды с 1 по 20 (из 2 ...
  • Падам Падам...Стук их сердец / Padam Padam...The Sound of His and Her Heart ...
  • Церемония открытия летних Олимпийских игр 2012 в Лондоне. НТВ + [27.08.2012 ...
  • Мой мальчик / Ma boy // Сезон 1, Эпизоды с 1 по 3 (из 3) (2012) [TVRip, ори ...
  • Панда и ёж / Panda and Hedgehog // Сезон 1, Эпизоды с 1 по 2 (из 16) (2012) ...
  • Тысячный мужчина / The Thousandth Man // Сезон 1, Эпизоды с 1 по 8 (из 8) ( ...
  • Король драмы / The King of Dramas // Сезон 1, Эпизоды с 1 по 8 (из 16) (201 ...
  • Информация
    Посетители, находящиеся в группе Гости, не могут оставлять комментарии к данной публикации.