вход на сайт

Имя пользователя :
Пароль :

Восстановление пароля Регистрация
Панда и ёж / Panda and Hedgehog // Сезон 1, Эпизоды с 1 по 2 (из 16) (2012) [HDTVRip, оригинал, софтсаб]
Рейтинг:
(голосов: 1)



[img]{THEME}/images/logopost.png[/img]



Панда и ёж
Panda and Hedgehog


Сезон 1, Эпизоды с 1 по 2 (из 16)

Год выпуска: 2012
Страна: Южная Корея
Производство студии: Channel A
Жанр: романтика, комедия

Режиссёр: Lee Min Chul
В ролях:
~ Ли Дон Хэ в роли Ко Сын Чжи
~ Юн Сын А в роли Пан Да Ян
~ Чой Чжин Хёк в роли Чой Вон Иля
~ Ю Со Ён в роли Кан Ын Би
~ Пак Гын Хён в роли Пак Бён Му
~ Ли Мун Хи в роли Пак Ми Хян
~ Ян Хи Гён в роли Ким Гап Сунн
~ Им Ын Хе в роли Пан Да Ны
~ Ю Сын Мок в роли Гиль Дон Гу
~ Хён Сок в роли Чой Чже Гёпа
~ Хон Ё Чжин в роли Хван Чжон Нэ

Перевод: Фансаб-группа BigBoss

▼Координатор: Tsukiko
Перевод: AnastEsia, Sakurovna, Silver Flex, Kosandra
Редакция: Alien
Озвучка: Оригинал
Хардсаб: Нет
Софтсаб: Есть (внешний, русский)

Описание:
Ко Сын Чжи - сирота. Он привык всегда все делать сам и на окружающий мир реагирует как ёж - сразу выпускает иголки.
Пан Да Ян - владелица кондитерской "Панда", куда он устраивается на работу.

Качество: HDTVRip
Продолжительность: 1 эпизод ~ 01:00:00

Формат: AVI
Видео кодек: H264
Аудио кодек: AC3
Свойства видео: 1280x720 (1.78:1), 29.970 fps, ~3041 kbps avg, 0.11 bit/pixel
Свойства аудио:48 kHz, 2/0 (L,R) ch, ~192 kbps

отчет MediaInfo ▼Text
Panda and Hedgehog[Big Boss] Panda and Hedgehog ep1.avi
General
Complete name : Panda and Hedgehog[Big Boss] Panda and Hedgehog ep1.avi
Format : AVI
Format/Info : Audio Video Interleave
Format profile : OpenDML
File size : 1.33 GiB
Duration : 58mn 42s
Overall bit rate : 3 242 Kbps
Writing application : PotEncoder
Video #0
ID : 0
Format : AVC
Format/Info : Advanced Video Codec
Format profile : [email protected]
Format settings, CABAC : Yes
Format settings, ReFrames : 4 frames
Codec ID : H264
Duration : 58mn 42s
Bit rate : 3 000 Kbps
Width : 1 280 pixels
Height : 720 pixels
Display aspect ratio : 16:9
Frame rate mode : Variable
Frame rate : 29.970 fps
Color space : YUV
Chroma subsampling : 4:2:0
Bit depth : 8 bits
Scan type : Progressive
Bits/(Pixel*Frame) : 0.109
Stream size : 1.25 GiB (94%)
Writing library : x264 core 104
Encoding settings : cabac=1 / ref=2 / deblock=1:0:0 / analyse=0x3:0x113 / me=hex / subme=4 / psy=1 / psy_rd=0.00:1.00 / mixed_ref=1 / me_range=16 / chroma_me=1 / trellis=1 / 8x8dct=1 / cqm=0 / deadzone=21,11 / fast_pskip=0 / chroma_qp_offset=-2 / threads=6 / sliced_threads=0 / nr=0 / decimate=1 / interlaced=0 / constrained_intra=0 / bframes=3 / b_pyramid=2 / b_adapt=1 / b_bias=0 / direct=1 / weightb=1 / open_gop=0 / weightp=1 / keyint=290 / keyint_min=25 / scenecut=40 / intra_refresh=0 / rc_lookahead=40 / rc=abr / mbtree=1 / bitrate=3000 / ratetol=1.0 / qcomp=0.60 / qpmin=10 / qpmax=51 / qpstep=4 / ip_ratio=1.40 / aq=1:1.00
Audio #1
ID : 1
Format : AC-3
Format/Info : Audio Coding 3
Mode extension : CM (complete main)
Codec ID : 2000
Duration : 58mn 42s
Bit rate mode : Constant
Bit rate : 192 Kbps
Channel(s) : 2 channels
Channel positions : Front: L R
Sampling rate : 48.0 KHz
Bit depth : 16 bits
Compression mode : Lossy
Stream size : 80.6 MiB (6%)
Alignment : Aligned on interleaves
Interleave, duration : 32 ms (0.96 video frame)
Interleave, preload duration : 32 ms

2a540ddaf556b1fb317304b5a5e71f02dc906c21Панда и ёж / Panda and Hedgehog // Сезон 1, Эпизоды с 1 по 2 (из 16) (2012) [HDTVRip, оригинал, софтсаб] Панда и ёж / Panda and Hedgehog // Сезон 1, Эпизоды с 1 по 2 (из 16) (2012) [HDTVRip, оригинал, софтсаб] " />

Аплоадер: Админ, дата: 7-09-2012, 22:14, торрент скачан: 359 раз

Понравилась раздача? Посмотрите эти:
  • Наследники. Под тяжестью короны / The Heirs // Сезон 1, Эпизоды с 1 по 16 ...
  • Наследники. Под тяжестью короны / The Heirs // Сезон 1, Эпизоды с 1 по 12 ...
  • Наследники. Под тяжестью короны / The Heirs // Сезон 1, Эпизоды с 1 по 8 ( ...
  • Жду любовь / Waiting for love / Сезон 1, Эпизоды с 1 по 2 (из 2) (2013) [HD ...
  • Богиня огня Чжон И / The Goddess of Fire, Jung Yi / Сезон 1, Эпизоды с 1 по ...
  • Школа 2013 / School 2013 // Сезон 5, Эпизоды с 1 по 16 (из 16) + special ( ...
  • Панда и ёж / Panda and Hedgehog // Сезон 1, Эпизоды с 1 по 16 (из 16) (2012 ...
  • Кунг-фу Панда 2 / Kung Fu Panda 2 (Дженнифер Ю, мультфильм, боевик, комеди ...
  • [3D] Кунг-фу Панда 2 3Д / Kung Fu Panda 2 3D (Дженнифер Ю / Jennifer Yuh, м ...
  • Футбольный клуб / Чемпионат Европы 2012 / НТВ+ [Футбол, 08.06.2012, HDTVRip ...
  • Формула 1. Сезон 2012. Этап 13 из 20. Гран-При Италии, Квалификация. [2012 ...
  • Солнце в объятиях луны / Луна и Солнце / The Moon That Embraces the Sun // ...
  • Не проиграю / Cant lose // Сезон 1, Эпизоды с 1 по 14 (из 18) (2011) [DTVR ...
  • Человек чести / Man of Honor / Glory Jane // Сезон 1, Эпизоды с 1 по 24 (из ...
  • Король драмы / The King of Dramas // Сезон 1, Эпизоды с 1 по 18 (из 18) (20 ...
  • Mylene Farmer / Du Temps [2011, Pop, HDTVRip]
  • Mylene Farmer / Bleu Noir [2011, Pop, HDTVRip]
  • Дождь любви / Love Rain / Love Rides the Rain // Сезон 1, Эпизоды с 1 по 20 ...
  • Madonna / Girl Gone Wild [2012, Pop, HDTV]
  • Король двух сердец / The King 2 Hearts // Сезон 1, Эпизоды с 1 по 20 (из 2 ...
  • Падам Падам...Стук их сердец / Padam Padam...The Sound of His and Her Heart ...
  • Мой мальчик / Ma boy // Сезон 1, Эпизоды с 1 по 3 (из 3) (2012) [TVRip, ори ...
  • Синдром / Syndrome // Сезон 1, Эпизоды с 1 по 20 (из 20) (2012) [HDTVRip, ...
  • Тысячный мужчина / The Thousandth Man // Сезон 1, Эпизоды с 1 по 8 (из 8) ( ...
  • Король драмы / The King of Dramas // Сезон 1, Эпизоды с 1 по 8 (из 16) (201 ...
  • Информация
    Посетители, находящиеся в группе Гости, не могут оставлять комментарии к данной публикации.