вход на сайт

Имя пользователя :
Пароль :

Восстановление пароля Регистрация
Мой мальчик / Ma boy // Сезон 1, Эпизоды с 1 по 3 (из 3) (2012) [TVRip, оригинал, софтсаб]
Рейтинг:
(голосов: 1)



[img]{THEME}/images/logopost.png[/img]



Мой мальчик
Ma Boy

Сезон 1, Эпизоды с 1 по 3 (из 3)

Год выпуска: 2012
Страна: Южная Корея
Производство студии: Tooniverse
Жанр: молодёжная комедия, романтика

Режиссёр: Lee Jung Min
В ролях:
~ Kim So Hyun в роли Geu Rim
~ Sun Woong в роли Hyun Woo/Irene
~ Kang Hyeon Joong в роли Lee Eok Man
~ Kim Ha Yeon в роли Ji Soo
~ Min Hoo в роли Tae Joon
~ Park Hee Gon в роли Hoon nam

Перевод: Фансаб-группа Мания
▼Перевод: [email protected]
Редакция: Grace_Elle
Тайпсеттер: Сана
Озвучка: Оригинал
Хардсаб: Нет
Софтсаб: Есть (внешний, русский)

Описание:
Кы Рим новая студентка в школе искусств, которая мечтает стать знаменитой. В школе у нее появляется популярная красавица-соседка по комнате Айрин, которая на самом деле - искусно переодетый парень. Немногие знают, что звезда рекламы Айрин и талантливый танцор Хён У - это один и тот же человек. В чем причина этого и чем все это закончится? Смотрите и узнаете

Качество: TVRip
Продолжительность: 1 эпизод ~ 00:55:00

Формат: MP4
Видео кодек: avc1
Аудио кодек: AC3
Свойства видео: 640x480 (4:3), 29.970 fps, ~1500 kbps avg, 0.163 bit/pixel
Свойства аудио: 44.1 kHz, 2/0 (L,R) ch, ~192 kbps

отчёт MediaInfo ▼Text
Мой мальчикMa Boy E01 doramamania.mp4
General
Complete name : Мой мальчикMa Boy E01 doramamania.mp4
Format : MPEG-4
Format profile : Base Media
Codec ID : isom
File size : 650 MiB
Duration : 53mn 28s
Overall bit rate : 1 698 Kbps
Writing application : PotEncoder
Video #1
ID : 1
Format : AVC
Format/Info : Advanced Video Codec
Format profile : [email protected]
Format settings, CABAC : No
Format settings, ReFrames : 1 frame
Codec ID : avc1
Codec ID/Info : Advanced Video Coding
Duration : 53mn 28s
Bit rate : 1 500 Kbps
Width : 640 pixels
Height : 480 pixels
Display aspect ratio : 4:3
Frame rate mode : Constant
Frame rate : 29.970 fps
Color space : YUV
Chroma subsampling : 4:2:0
Bit depth : 8 bits
Scan type : Progressive
Bits/(Pixel*Frame) : 0.163
Stream size : 575 MiB (88%)
Writing library : x264 core 112
Encoding settings : cabac=0 / ref=1 / deblock=1:0:0 / analyse=0x1:0x111 / me=dia / subme=1 / psy=1 / psy_rd=0.00:0.00 / mixed_ref=0 / me_range=16 / chroma_me=1 / trellis=0 / 8x8dct=0 / cqm=0 / deadzone=21,11 / fast_pskip=0 / chroma_qp_offset=0 / threads=6 / sliced_threads=0 / nr=0 / decimate=1 / interlaced=0 / constrained_intra=0 / bframes=0 / weightp=0 / keyint=29 / keyint_min=15 / scenecut=0 / intra_refresh=0 / rc_lookahead=29 / rc=abr / mbtree=1 / bitrate=1500 / ratetol=1.0 / qcomp=0.60 / qpmin=10 / qpmax=51 / qpstep=4 / ip_ratio=1.40 / aq=1:1.00
Audio #2
ID : 2
Format : AC-3
Format/Info : Audio Coding 3
Mode extension : CM (complete main)
Codec ID : ac-3
Duration : 53mn 28s
Bit rate mode : Constant
Bit rate : 192 Kbps
Channel(s) : 2 channels
Channel positions : Front: L R
Sampling rate : 44.1 KHz
Bit depth : 16 bits
Compression mode : Lossy
Stream size : 73.4 MiB (11%)

f7980b6b1dc54e3fdb8b11a911b77f5110b914d7Мой мальчик / Ma boy // Сезон 1, Эпизоды с 1 по 3 (из 3) (2012) [TVRip, оригинал, софтсаб] Мой мальчик / Ma boy // Сезон 1, Эпизоды с 1 по 3 (из 3) (2012) [TVRip, оригинал, софтсаб] " />

Аплоадер: Админ, дата: 5-09-2012, 23:21, торрент скачан: 359 раз

Понравилась раздача? Посмотрите эти:
  • Наследники. Под тяжестью короны / The Heirs // Сезон 1, Эпизоды с 1 по 16 ...
  • Akon / Get By [2013, Hip-Hop, MasterRip 4K]
  • Наследники. Под тяжестью короны / The Heirs // Сезон 1, Эпизоды с 1 по 12 ...
  • Наследники. Под тяжестью короны / The Heirs // Сезон 1, Эпизоды с 1 по 8 ( ...
  • Жду любовь / Waiting for love / Сезон 1, Эпизоды с 1 по 2 (из 2) (2013) [HD ...
  • Айрис / IRIS // Сезон 2, Эпизоды с 1 по 11 (из 20) (2013) [HDTVRip, оригин ...
  • Панда и ёж / Panda and Hedgehog // Сезон 1, Эпизоды с 1 по 16 (из 16) (2012 ...
  • Чемпионат Европы 2012 / 1/2 финала / Германия - Италия / Спорт 1 HD [Футбо ...
  • Солнце в объятиях луны / Луна и Солнце / The Moon That Embraces the Sun // ...
  • Не проиграю / Cant lose // Сезон 1, Эпизоды с 1 по 14 (из 18) (2011) [DTVR ...
  • Человек чести / Man of Honor / Glory Jane // Сезон 1, Эпизоды с 1 по 24 (из ...
  • Король драмы / The King of Dramas // Сезон 1, Эпизоды с 1 по 18 (из 18) (20 ...
  • Амнезия / Amnesia // Сезон 1, Эпизоды с 1 по 3 (из 12) (2013) [HDTVRip, ор ...
  • Mylene Farmer / Du Temps [2011, Pop, HDTVRip]
  • Mylene Farmer / Bleu Noir [2011, Pop, HDTVRip]
  • Амнезия / Amnesia // Сезон 1, Эпизоды с 1 по 2 (из 12) (2013) [HDTVRip, ор ...
  • Дождь любви / Love Rain / Love Rides the Rain // Сезон 1, Эпизоды с 1 по 20 ...
  • Madonna / Girl Gone Wild [2012, Pop, HDTV]
  • Король двух сердец / The King 2 Hearts // Сезон 1, Эпизоды с 1 по 20 (из 2 ...
  • The Dream Team - NBA TV Documentary [Баскетбол,13.06.2012, HDTVRip/720p, MP ...
  • Церемония открытия летних Олимпийских игр 2012 в Лондоне. НТВ + [27.08.2012 ...
  • Панда и ёж / Panda and Hedgehog // Сезон 1, Эпизоды с 1 по 2 (из 16) (2012) ...
  • Синдром / Syndrome // Сезон 1, Эпизоды с 1 по 20 (из 20) (2012) [HDTVRip, ...
  • Я люблю Ли Тэ Ри / Aileobeu Itaeli / I Love Lee Tae Ri // Сезон 1, Эпизоды ...
  • Король драмы / The King of Dramas // Сезон 1, Эпизоды с 1 по 8 (из 16) (201 ...
  • Информация
    Посетители, находящиеся в группе Гости, не могут оставлять комментарии к данной публикации.