вход на сайт

Имя пользователя :
Пароль :

Восстановление пароля Регистрация
Возлюбленный королевы Инхён / Inhyeon Wanghu-ui Namja / Queen In Hyun’s Man // Сезон 1, Эпизоды с 1 по 16 (из 16) (2012) [HDTVRip, оригинал, софтсаб]
Рейтинг:
(голосов: 1)



[img]{THEME}/images/logopost.png[/img]



Возлюбленный королевы Инхён / Inhyeon Wanghu-ui Namja / Queen In Hyun’s Man

Сезон 1, Эпизоды с 1 по 16 (из 16)

Год выпуска: 2012
Страна: Южная Корея
Производство студии: tvN
Жанр: романтика, комедия, фэнтази

Режисер: Ким Бён Су
В ролях: Чжи Хюн Ву, Ё И На, Ким Чжи Ву, Га Дык Хи, Пак Юн Рин, Чжо Даль Хван, Ум Хё Суп, Ли Кван Хун, Чжин Йе Соль

Перевод: команды Cheeza
Переводчик - Prianaja, корректура – Siara
Озвучка: Оригинал
Хардсаб: Нет
Софтсаб: Есть (внешний, русский)

Описание: Эпоха Чосон: власть, интриги и любовь. Добропорядочную королеву Инхён низложили из-за придворных интриг, заменив её на молоденькую наложницу Чан Хибин. Эту несправедливость пытается исправить молодой учёный Пак Бондо, пытаясь восстановить права королевы Инхён. Но лёгких путей он не ищёт - отправляется на 300 лет в будущее в современный Сеул, где и встречает Чхве Хи Чжин – молодую актрису, которая по интересной случайности, получает роль королевы Инхён в телевизионной драме.
© Prianaja

Качество: HDTVRip
Продолжительность: 1 эпизод ~ 00:47:00

~ 1-6, 13-16 серии
Формат: AVI
Видео кодек: H264
Аудио кодек: MP3
Свойства видео: H264, 2993 Kbps, 1280x720 (16:9), 29.970 fps, 0.108bit/pixel
Свойства аудио: MP3, 192 Kbps, 2 channels, 48.0 KHz

~ 7-12 серии
Формат: MKV
Видео кодек: AVC
Аудио кодек: AAC
Свойства видео: AVC, 3176 Kbps, 1280x720 (16:9), 29.970 fps
Свойства аудио: AAC, 2 channels, 48.0 KHz
отчет MediaInfo ▼ TextQueen Inhyun’s ManQueen.InHyuns.Man.E01.120418.H264.720p.HDTV-arigaT.avi
Format : AVI
Format/Info : Audio Video Interleave
Format profile : OpenDML
File size : 1.05 GiB
Duration : 47mn 4s
Overall bit rate : 3 203 Kbps
Movie name : ÀåÄ¡
Writing application : Lavf54.0.100
Video #0
ID : 0
Format : AVC
Format/Info : Advanced Video Codec
Format profile : [email protected]
Format settings, CABAC : No
Format settings, ReFrames : 1 frame
Codec ID : H264
Duration : 47mn 4s
Bit rate : 2 993 Kbps
Width : 1 280 pixels
Height : 720 pixels
Display aspect ratio : 16:9
Frame rate mode : Variable
Frame rate : 29.970 fps
Color space : YUV
Chroma subsampling : 4:2:0
Bit depth : 8 bits
Scan type : Progressive
Bits/(Pixel*Frame) : 0.108
Stream size : 1 008 MiB (93%)
Audio #1
ID : 1
Format : MPEG Audio
Format version : Version 1
Format profile : Layer 3
Mode : Joint stereo
Mode extension : MS Stereo
Codec ID : 55
Codec ID/Hint : MP3
Duration : 47mn 4s
Bit rate mode : Constant
Bit rate : 192 Kbps
Channel(s) : 2 channels
Sampling rate : 48.0 KHz
Compression mode : Lossy
Stream size : 64.7 MiB (6%)
Alignment : Aligned on interleaves
Interleave, duration : 24 ms (0.72 video frame)
Writing library : LAME

Queen Inhyun’s ManQueen.InHyuns.Man.E10.120517.H264.720p.HDTV-arigaT.mkv
Format : Matroska
Format version : Version 2
File size : 1.12 GiB
Duration : 50mn 39s
Overall bit rate : 3 176 Kbps
&nbs
75104544c7bbda989c4935cf4291ef2d60fc3124Возлюбленный королевы Инхён / Inhyeon Wanghu-ui Namja / Queen In Hyun’s Man // Сезон 1, Эпизоды с 1 по 16 (из 16) (2012) [HDTVRip, оригинал, софтсаб] Возлюбленный королевы Инхён / Inhyeon Wanghu-ui Namja / Queen In Hyun’s Man // Сезон 1, Эпизоды с 1 по 16 (из 16) (2012) [HDTVRip, оригинал, софтсаб] " />

Аплоадер: Админ, дата: 22-06-2012, 22:59, торрент скачан: 359 раз

Понравилась раздача? Посмотрите эти:
  • Акула / Sangeo / Shark // Сезон 1, Эпизоды с 1 по 20 (из 20) (2013) [HDTVRi ...
  • Наследники. Под тяжестью короны / The Heirs // Сезон 1, Эпизоды с 1 по 16 ...
  • Наследники. Под тяжестью короны / The Heirs // Сезон 1, Эпизоды с 1 по 12 ...
  • Наследники. Под тяжестью короны / The Heirs // Сезон 1, Эпизоды с 1 по 8 ( ...
  • Жду любовь / Waiting for love / Сезон 1, Эпизоды с 1 по 2 (из 2) (2013) [HD ...
  • Айрис / IRIS // Сезон 2, Эпизоды с 1 по 12 (из 20) (2013) [HDTVRip, оригин ...
  • Айрис / IRIS // Сезон 2, Эпизоды с 1 по 11 (из 20) (2013) [HDTVRip, оригин ...
  • Айрис / IRIS // Сезон 2, Эпизоды с 1 по 6 (из 20) (2013) [HDTVRip, оригина ...
  • Айрис / IRIS // Сезон 2, Эпизоды с 1 по 4 (из 20) (2013) [HDTVRip, оригина ...
  • Школа 2013 / School 2013 // Сезон 5, Эпизоды с 1 по 16 (из 16) + special ( ...
  • Айрис / IRIS // Сезон 2, Эпизоды с 1 по 3 (из 20) (2013) [HDTVRip, оригина ...
  • Молодежный чемпионат мира 2012 (U-20). Четвертьфинал: Россия - Чехия [02.01 ...
  • Чемпионат Европы 2012 / Группа C / 1-й тур / Ирландия — Хорватия / ТРК Футб ...
  • Олимпиада 2012 / Мужчины / Группа D / 1-й тур / Испания — Япония / НТВ+ [Фу ...
  • Tank Feat. T.I. & Kris Stephens / Compliments [2012, RnB,Hip-Hop, HDRip]
  • Machete / Нежность [2011, R&B, HDRip]
  • LeBron James 2012 Finals MVP [Баскетбол, 24.06.2012, HD, 720p, H.264, EN, H ...
  • Top 10 Dunks of the 2012 NBA Finals [Баскетбол, 25.06.2012, HD, 720p, H.264 ...
  • UFC On Fuel - Munoz vs Weidman [MMA, 11.07.2012, HDTVRip, EN]
  • Товарищеский матч 2012 / АмаЗулу (ЮАР) - Манчестер Юнайтед (Англия) / MU TV ...
  • Олимпиада 2012 / Женщины, Мужчины / Плавание / Квалификация / НТВ+ [30.07.2 ...
  • Панда и ёж / Panda and Hedgehog // Сезон 1, Эпизоды с 1 по 2 (из 16) (2012) ...
  • Синдром / Syndrome // Сезон 1, Эпизоды с 1 по 20 (из 20) (2012) [HDTVRip, ...
  • Я люблю Ли Тэ Ри / Aileobeu Itaeli / I Love Lee Tae Ri // Сезон 1, Эпизоды ...
  • Тысячный мужчина / The Thousandth Man // Сезон 1, Эпизоды с 1 по 8 (из 8) ( ...
  • Информация
    Посетители, находящиеся в группе Гости, не могут оставлять комментарии к данной публикации.