вход на сайт

Имя пользователя :
Пароль :

Восстановление пароля Регистрация
Падам Падам...Стук их сердец / Padam Padam...The Sound of His and Her Heartbeats // Сезон 1, Эпизоды с 1 по 20 (из 20) (2011) [HDTVRip, оригинал, софтсаб]
Рейтинг:
(голосов: 1)



[img]{THEME}/images/logopost.png[/img]



Падам Падам...Стук их сердец
Padam Padam...The Sound of His and Her Heartbeats


Сезон 1, Эпизоды с 1 по 20 (из 20)

Год выпуска: 2011
Страна: Южная Корея
Производство студии: jTBC
Жанр: романтика, фэнтези
Режиссёр: Kim Kyu Tae
В ролях:
~ Jung Woo Sung в роли Ян Кан Чхиль
~ Han Ji Min в роли Чон Чжи На
~ Kim Bum в роли Ли Гук Су
~ Lee Jae Woo в роли Ким Ён Чхоль
~ Na Moon Hee в роли Ким Ми Чжа (мама Кан Чхиля)
~ Jang Hang Sun в роли детектива Чон (отец Чжи На)
~ Yoon Joo Sang в роли надзирателя Ким
~ Kim Joon Sung в роли Чхан Голь
~ Kim Hyung Bum в роли О Ён Ак
~ Kim Ji Yoo в роли Мин Хё Сук (подруга детства Кан Чхиля)
~ Choi Tae Joon в роли Лим Чон Хи (сын Кан Чхиля)
~ Cheon Doong в роли Ян Кан У (брат Кан Чхиля)

Перевод: Фансаб-группа GoldFishSubs & agasshi

1-14 серии:
Фансаб-группа GoldFishSubs
Перевод, ретайминг: Galina.se
Редакция: dorishka, Iskra
Координатор: Galina.se
15-20 серии:
Перевод: agasshi

Озвучка: Оригинал
Хардсаб: Нет
Софтсаб: Есть (внешний, русский)

Описание:
Ницше как-то сказал: "То, что не убивает, делает нас сильнее!". Кан Чхиль, будь у него такая возможность, возразил бы ему: "Всё, что не убивает, заставляет нас желать смерти". Ещё бы, 16 лет отсидеть в тюрьме за преступление, которого не совершал, оказаться на самом дне общества... Друзья считают его обузой, собственная мать отвернулась. Казалось бы, это конец. Но в любой истории есть "но". В этой - в образе чокнутой на первый взгляд ветеринарши и не более адекватного сокамерника, утверждающего, что он - ангел. О том, изменится ли жизнь главного героя и какую роль в этом сыграют "ангел" и странная похитительница собак вы узнаете, посмотрев этот сериал.

Качество: HDTVRip
Продолжительность: 1 эпизод ~ 01:05:00

Формат: AVI
Видео кодек: H264
Аудио кодек: AC3
Свойства видео: 1280x720 (1.78:1), 29.970 fps, Intel ITU H.264 ~3108 kbps avg, 0.11 bit/pixel
Свойства аудио:48 kHz, AC3 Dolby Digital, 2/0 (L,R) ch, ~192 kbps

отчет MediaInfo ▼Text
Padam PadamPadam Padam ep. 01.avi
General
Complete name : Padam PadamPadam Padam ep. 01.avi
Format : AVI
Format/Info : Audio Video Interleave
File size : 1.50 GiB
Duration : 1h 4mn
Overall bit rate : 3 312 Kbps
Writing application : Lavf53.8.0
Writing library : VirtualDub build 32842/release
Video #0
ID : 0
Format : AVC
Format/Info : Advanced Video Codec
Format profile : [email protected]
Format settings, CABAC : Yes
Format settings, ReFrames : 3 frames
Codec ID : H264
Duration : 1h 4mn
Bit rate : 3 108 Kbps
Width : 1 280 pixels
Height : 720 pixels
Display aspect ratio : 16:9
Frame rate mode : Variable
Frame rate : 29.970 fps
Color space : YUV
Chroma subsampling : 4:2:0
Bit depth : 8 bits
Scan type : Progressive
Bits/(Pixel*Frame) : 0.113
Stream size : 1.41 GiB (94%)
Audio #1
ID : 1
Format : AC-3
Format/Info : Audio Coding 3
Mode extension : CM (complete main)
Codec ID : 2000
Duration : 1h 4mn
Bit rate mode : Constant
Bit rate : 192 Kbps
Channel(s) : 2 channels
Channel positions : Front: L R
Sampling rate : 48.0 KHz
Bit depth : 16 bits
Compression mode : Lossy
Stream size : 89.1 MiB (6%)
Alignment : Aligned on interleaves
Interleave, duration : 33 ms (1.00 video frame)
Interleave, preload duration : 512 ms

237cc9e2299fdb83260a8fea0c0a59e77fbc50a0Падам Падам...Стук их сердец / Padam Padam...The Sound of His and Her Heartbeats // Сезон 1, Эпизоды с 1 по 20 (из 20) (2011) [HDTVRip, оригинал, софтсаб] Падам Падам...Стук их сердец / Padam Padam...The Sound of His and Her Heartbeats // Сезон 1, Эпизоды с 1 по 20 (из 20) (2011) [HDTVRip, оригинал, софтсаб] " />

Аплоадер: Админ, дата: 17-06-2012, 16:01, торрент скачан: 359 раз

Понравилась раздача? Посмотрите эти:
  • Наследники. Под тяжестью короны / The Heirs // Сезон 1, Эпизоды с 1 по 16 ...
  • Наследники. Под тяжестью короны / The Heirs // Сезон 1, Эпизоды с 1 по 12 ...
  • Наследники. Под тяжестью короны / The Heirs // Сезон 1, Эпизоды с 1 по 8 ( ...
  • Жду любовь / Waiting for love / Сезон 1, Эпизоды с 1 по 2 (из 2) (2013) [HD ...
  • Богиня огня Чжон И / The Goddess of Fire, Jung Yi / Сезон 1, Эпизоды с 1 по ...
  • Айрис / IRIS // Сезон 2, Эпизоды с 1 по 12 (из 20) (2013) [HDTVRip, оригин ...
  • Айрис / IRIS // Сезон 2, Эпизоды с 1 по 11 (из 20) (2013) [HDTVRip, оригин ...
  • Айрис / IRIS // Сезон 2, Эпизоды с 1 по 6 (из 20) (2013) [HDTVRip, оригина ...
  • Айрис / IRIS // Сезон 2, Эпизоды с 1 по 4 (из 20) (2013) [HDTVRip, оригина ...
  • Школа 2013 / School 2013 // Сезон 5, Эпизоды с 1 по 16 (из 16) + special ( ...
  • Панда и ёж / Panda and Hedgehog // Сезон 1, Эпизоды с 1 по 16 (из 16) (2012 ...
  • Айрис / IRIS // Сезон 2, Эпизоды с 1 по 3 (из 20) (2013) [HDTVRip, оригина ...
  • Солнце в объятиях луны / Луна и Солнце / The Moon That Embraces the Sun // ...
  • Не проиграю / Cant lose // Сезон 1, Эпизоды с 1 по 14 (из 18) (2011) [DTVR ...
  • Человек чести / Man of Honor / Glory Jane // Сезон 1, Эпизоды с 1 по 24 (из ...
  • Пир богов / Feast of the Gods // Сезон 1, Эпизоды с 1 по 32 (из 32) (2012) ...
  • Король драмы / The King of Dramas // Сезон 1, Эпизоды с 1 по 18 (из 18) (20 ...
  • Дождь любви / Love Rain / Love Rides the Rain // Сезон 1, Эпизоды с 1 по 20 ...
  • Король двух сердец / The King 2 Hearts // Сезон 1, Эпизоды с 1 по 20 (из 2 ...
  • Ну-ка, улыбнись / Smile, You // Сезон 1, Эпизоды с 1 по 45 (из 45) (2009) [ ...
  • Мой мальчик / Ma boy // Сезон 1, Эпизоды с 1 по 3 (из 3) (2012) [TVRip, ори ...
  • Панда и ёж / Panda and Hedgehog // Сезон 1, Эпизоды с 1 по 2 (из 16) (2012) ...
  • Синдром / Syndrome // Сезон 1, Эпизоды с 1 по 20 (из 20) (2012) [HDTVRip, ...
  • Тысячный мужчина / The Thousandth Man // Сезон 1, Эпизоды с 1 по 8 (из 8) ( ...
  • Король драмы / The King of Dramas // Сезон 1, Эпизоды с 1 по 8 (из 16) (201 ...
  • Информация
    Посетители, находящиеся в группе Гости, не могут оставлять комментарии к данной публикации.