вход на сайт

Имя пользователя :
Пароль :

Восстановление пароля Регистрация
Король двух сердец / The King 2 Hearts // Сезон 1, Эпизоды с 1 по 20 (из 20) (2012) [HDTVRip, оригинал, софтсаб]
Рейтинг:
(голосов: 1)



[img]{THEME}/images/logopost.png[/img]



Король двух сердец
Deo-King-too-heo-cheu / The King 2 Hearts


Сезон 1, Эпизоды с 1 по 20 (из 20)

Год выпуска: 2012
Страна: Южная Корея
Производство студии: MBC
Жанр: романтика, комедия

Режиссёр: Lee Jae Kyu
В ролях:
~ Lee Seung Ki в роли Lee Jae Ha
~ Ha Ji Won в роли Kim Hyang Ah
~ Jo Jung Suk в роли Eun Si Kyung
~ Lee Yoon Ji в роли Lee Jae Shin
~ Yoon Je Moon в роли Kim Bong Goo

Перевод: Фансаб-группа Bears
▼Перевод: SnowWhite, Narvskaya, Mira, Alex
Редакция: Narvskaya
Бета-редакция: Иришка, Alex
Озвучка: Оригинал
Хардсаб: Нет
Софтсаб: Есть (внешний, русский)

Описание:
Солдатам из Южной и Северной Кореи пришлось объединиться для участия в чемпионате? Не может быть! Что будет, если женщина-офицер Ким Хан А из Северной Кореи и член королевской семьи, щёголь и ловелас, Ли Джэ Ха из Южной окажутся в одной лодке? Смогут ли враги стать одной командой?

Качество: HDTVRip
Продолжительность: 1 эпизод ~ 01:05:00

Формат:
~ 1-17 серии: AVI
~ 18, 20 серии: MPEG-4
Видео кодек:
~ 1-17 серии: H264
~ 18, 20 серии: avc1
Аудио кодек:
~ 1-17 серии: MP3
~ 18, 20 серии: AAC
Свойства видео:
~ 1-17 серии: 800x450 (1.78:1), 29.970 fps, Intel ITU H.264 ~1511 kbps avg, 0.14 bit/pixel
~ 18, 20 серии: 800x450 (16:9), 29.970 fps, avc1 ~1026 kbps avg, 0.095 bit/pixel
Свойства аудио:
~ 1-17 серии: 48 kHz, MPEG Layer 3, 2 ch, ~192.00 kbps avg
~ 18, 20 серии: 48 kHz, AAC, 2 ch, ~160.00 kbps avg

отчет MediaInfo ▼
1 серия ▼Text
General
Complete name : The King 2 Hearts/King 2 Hearts 01.avi
Format : AVI
Format/Info : Audio Video Interleave
File size : 783 MiB
Duration : 1h 3mn
Overall bit rate : 1 717 Kbps
Writing application : VirtualDubMod 1.5.10.2 (build 2540/release)
Video #0
ID : 0
Format : AVC
Format/Info : Advanced Video Codec
Format profile : [email protected]
Format settings, CABAC : Yes
Format settings, ReFrames : 4 frames
Codec ID : H264
Duration : 1h 3mn
Bit rate : 1 500 Kbps
Width : 800 pixels
Height : 450 pixels
Display aspect ratio : 16:9
Frame rate mode : Variable
Frame rate : 29.970 fps
Color space : YUV
Chroma subsampling : 4:2:0
Bit depth : 8 bits
Scan type : Progressive
Bits/(Pixel*Frame) : 0.139
Stream size : 689 MiB (88%)
Writing library : x264 core 112
Encoding settings : cabac=1 / ref=3 / deblock=1:-1:-1 / analyse=0x3:0x113 / me=hex / subme=6 / psy=1 / psy_rd=1.00:1.00 / mixed_ref=1 / me_range=16 / chroma_me=1 / trellis=1 / 8x8dct=1 / cqm=0 / deadzone=21,11 / fast_pskip=0 / chroma_qp_offset=-4 / threads=12 / sliced_threads=0 / nr=0 / decimate=1 / interlaced=0 / constrained_intra=0 / bframes=3 / b_pyramid=2 / b_adapt=1 / b_bias=1 / direct=3 / weightb=1 / open_gop=0 / weightp=2 / keyint=299 / keyint_min=25 / scenecut=1 / intra_refresh=0 / rc_lookahead=40 / rc=abr / mbtree=1 / bitrate=1500 / ratetol=1.0 / qcomp=0.60 / qpmin=10 / qpmax=51 / qpstep=4 / ip_ratio=1.40 / aq=1:1.00
Audio #1
ID : 1
Format : MPEG Audio
Format version : Version 1
Format profile : Layer 3
Mode : Joint stereo
Codec ID : 55
Codec ID/Hint : MP3
Duration : 1h 3mn
Bit rate mode : Constant
Bit rate : 192 Kbps
Channel(s) : 2 channels
Sampling rate : 48.0 KHz
Compression mode : Lossy
Stream size : 87.5 MiB (11%)
Alignment : Aligned on interleaves
Interleave, duration : 24 ms (0.72 video frame)
Writing library : LAME3.98.2
&n
f78c4e1394de2fe69615e41a37353472aa912411Король двух сердец / The King 2 Hearts // Сезон 1, Эпизоды с 1 по 20 (из 20) (2012) [HDTVRip, оригинал, софтсаб] Король двух сердец / The King 2 Hearts // Сезон 1, Эпизоды с 1 по 20 (из 20) (2012) [HDTVRip, оригинал, софтсаб] " />

Аплоадер: Админ, дата: 12-06-2012, 23:14, торрент скачан: 359 раз

Понравилась раздача? Посмотрите эти:
  • Наследники. Под тяжестью короны / The Heirs // Сезон 1, Эпизоды с 1 по 16 ...
  • Наследники. Под тяжестью короны / The Heirs // Сезон 1, Эпизоды с 1 по 12 ...
  • Наследники. Под тяжестью короны / The Heirs // Сезон 1, Эпизоды с 1 по 8 ( ...
  • Жду любовь / Waiting for love / Сезон 1, Эпизоды с 1 по 2 (из 2) (2013) [HD ...
  • Айрис / IRIS // Сезон 2, Эпизоды с 1 по 11 (из 20) (2013) [HDTVRip, оригин ...
  • Айрис / IRIS // Сезон 2, Эпизоды с 1 по 4 (из 20) (2013) [HDTVRip, оригина ...
  • Школа 2013 / School 2013 // Сезон 5, Эпизоды с 1 по 16 (из 16) + special ( ...
  • Панда и ёж / Panda and Hedgehog // Сезон 1, Эпизоды с 1 по 16 (из 16) (2012 ...
  • Айрис / IRIS // Сезон 2, Эпизоды с 1 по 3 (из 20) (2013) [HDTVRip, оригина ...
  • Солнце в объятиях луны / Луна и Солнце / The Moon That Embraces the Sun // ...
  • Не проиграю / Cant lose // Сезон 1, Эпизоды с 1 по 14 (из 18) (2011) [DTVR ...
  • Человек чести / Man of Honor / Glory Jane // Сезон 1, Эпизоды с 1 по 24 (из ...
  • Король драмы / The King of Dramas // Сезон 1, Эпизоды с 1 по 18 (из 18) (20 ...
  • Дождь любви / Love Rain / Love Rides the Rain // Сезон 1, Эпизоды с 1 по 20 ...
  • Король моды / Fashion King // Сезон 1, Эпизоды с 1 по 20 (из 20) (2012) [TV ...
  • Падам Падам...Стук их сердец / Padam Padam...The Sound of His and Her Heart ...
  • Мой мальчик / Ma boy // Сезон 1, Эпизоды с 1 по 3 (из 3) (2012) [TVRip, ори ...
  • Панда и ёж / Panda and Hedgehog // Сезон 1, Эпизоды с 1 по 2 (из 16) (2012) ...
  • Синдром / Syndrome // Сезон 1, Эпизоды с 1 по 20 (из 20) (2012) [HDTVRip, ...
  • Король драмы / The King of Dramas // Сезон 1, Эпизоды с 1 по 8 (из 16) (201 ...
  • Информация
    Посетители, находящиеся в группе Гости, не могут оставлять комментарии к данной публикации.