вход на сайт

Имя пользователя :
Пароль :

Восстановление пароля Регистрация
Дождь любви / Love Rain / Love Rides the Rain // Сезон 1, Эпизоды с 1 по 20 (из 20) (2012) [HDTVRip, оригинал, софтсаб]
Рейтинг:
(голосов: 1)



[img]{THEME}/images/logopost.png[/img]



Дождь любви
Love Rain / Love Rides the Rain


Сезон 1, Эпизоды с 1 по 20 (из 20)

Год выпуска: 2012
Страна: Южная Корея
Производство студии: KBS2
Жанр: романтика, фэнтези
Режиссёр: Yoon Suk Ho
В ролях:
~ Jang Geun Suk в роли Seo In Ha / Seo Joon
~ Im Yoon Ah в роли Kim Yoon Hee / Jung Ha Na
~ Kim Si Hoo в роли Lee Dong Wook / Lee Sun Ho
~ Son Eun Seo в роли Baek Hye Jung в 70-е годы
~ Seo In Guk в роли Kim Chang Mo в 70-е годы
~ Hwang Bo Ra в роли Na In Sook в 70-е годы

Перевод: Tiris
Озвучка: Оригинал
Хардсаб: Нет
Софтсаб: Есть (внешний, русский)

Описание:
Действие дорамы разворачивается в начале 70-х. Ким Юн Хи - скромная девушка, студентка престижного университета. Воспитанная бабушкой, она всегда была одинокой, и единственный её друг - дневник. Однажды она знакомится с Со Ин Ха, который довольно быстро влюбляется в Юн Хи, но их любви не суждено было случиться, и вскоре жизнь их разводит. Многие годы спустя судьба сводит их детей. Со Чжун и Ким Ха На совсем не похожи на своих родителей, но они тоже влюбляются друг друга.
Смогут ли они быть вместе, или же их ждёт участь родителей?

Качество: HDTVRip
Продолжительность: 1 эпизод ~ 01:05:00

Формат: AVI
Видео кодек: H264
Аудио кодек: MP3
Свойства видео: 800x450 (1.78:1), 29.970 fps, Intel ITU H.264 ~1513 kbps avg, 0.14 bit/pixel
Свойства аудио:48 kHz, MPEG Layer 3, 2 ch, ~192.00 kbps avg

отчет MediaInfo ▼Text
General
Complete name : Love RainLove Rain EP01.avi
Format : AVI
Format/Info : Audio Video Interleave
File size : 780 MiB
Duration : 1h 3mn
Overall bit rate : 1 719 Kbps
Writing application : VirtualDubMod 1.5.10.2 (build 2540/release)
Video #0
ID : 0
Format : AVC
Format/Info : Advanced Video Codec
Format profile : [email protected]
Format settings, CABAC : Yes
Format settings, ReFrames : 4 frames
Codec ID : H264
Duration : 1h 3mn
Bit rate : 1 500 Kbps
Width : 800 pixels
Height : 450 pixels
Display aspect ratio : 16:9
Frame rate mode : Variable
Frame rate : 29.970 fps
Color space : YUV
Chroma subsampling : 4:2:0
Bit depth : 8 bits
Scan type : Progressive
Bits/(Pixel*Frame) : 0.139
Stream size : 687 MiB (88%)
Writing library : x264 core 112
Encoding settings : cabac=1 / ref=3 / deblock=1:-1:-1 / analyse=0x3:0x113 / me=hex / subme=6 / psy=1 / psy_rd=1.00:1.00 / mixed_ref=1 / me_range=16 / chroma_me=1 / trellis=1 / 8x8dct=1 / cqm=0 / deadzone=21,11 / fast_pskip=0 / chroma_qp_offset=-4 / threads=12 / sliced_threads=0 / nr=0 / decimate=1 / interlaced=0 / constrained_intra=0 / bframes=3 / b_pyramid=2 / b_adapt=1 / b_bias=1 / direct=3 / weightb=1 / open_gop=0 / weightp=2 / keyint=299 / keyint_min=25 / scenecut=1 / intra_refresh=0 / rc_lookahead=40 / rc=abr / mbtree=1 / bitrate=1500 / ratetol=1.0 / qcomp=0.60 / qpmin=10 / qpmax=51 / qpstep=4 / ip_ratio=1.40 / aq=1:1.00
Audio #1
ID : 1
Format : MPEG Audio
Format version : Version 1
Format profile : Layer 3
Mode : Joint stereo
Mode extension : MS Stereo
Codec ID : 55
Codec ID/Hint : MP3
Duration : 1h 3mn
Bit rate mode : Constant
Bit rate : 192 Kbps
Channel(s) : 2 channels
Sampling rate : 48.0 KHz
Compression mode : Lossy
Stream size : 87.1 MiB (11%)
Alignment : Aligned on interleaves
Interleave, duration : 24 ms (0.72 video frame)
Writing library : LAME3.98.2
Language : un
 
dfd8924f735d794dbe12b46380e15a45765e48e5Дождь любви / Love Rain / Love Rides the Rain // Сезон 1, Эпизоды с 1 по 20 (из 20) (2012) [HDTVRip, оригинал, софтсаб] Дождь любви / Love Rain / Love Rides the Rain // Сезон 1, Эпизоды с 1 по 20 (из 20) (2012) [HDTVRip, оригинал, софтсаб] " />

Аплоадер: Админ, дата: 1-06-2012, 23:06, торрент скачан: 359 раз

Понравилась раздача? Посмотрите эти:
  • Наследники. Под тяжестью короны / The Heirs // Сезон 1, Эпизоды с 1 по 16 ...
  • Наследники. Под тяжестью короны / The Heirs // Сезон 1, Эпизоды с 1 по 12 ...
  • Наследники. Под тяжестью короны / The Heirs // Сезон 1, Эпизоды с 1 по 8 ( ...
  • Жду любовь / Waiting for love / Сезон 1, Эпизоды с 1 по 2 (из 2) (2013) [HD ...
  • Богиня огня Чжон И / The Goddess of Fire, Jung Yi / Сезон 1, Эпизоды с 1 по ...
  • Айрис / IRIS // Сезон 2, Эпизоды с 1 по 12 (из 20) (2013) [HDTVRip, оригин ...
  • Айрис / IRIS // Сезон 2, Эпизоды с 1 по 11 (из 20) (2013) [HDTVRip, оригин ...
  • Айрис / IRIS // Сезон 2, Эпизоды с 1 по 6 (из 20) (2013) [HDTVRip, оригина ...
  • Айрис / IRIS // Сезон 2, Эпизоды с 1 по 4 (из 20) (2013) [HDTVRip, оригина ...
  • Школа 2013 / School 2013 // Сезон 5, Эпизоды с 1 по 16 (из 16) + special ( ...
  • Панда и ёж / Panda and Hedgehog // Сезон 1, Эпизоды с 1 по 16 (из 16) (2012 ...
  • Айрис / IRIS // Сезон 2, Эпизоды с 1 по 3 (из 20) (2013) [HDTVRip, оригина ...
  • Солнце в объятиях луны / Луна и Солнце / The Moon That Embraces the Sun // ...
  • Не проиграю / Cant lose // Сезон 1, Эпизоды с 1 по 14 (из 18) (2011) [DTVR ...
  • Человек чести / Man of Honor / Glory Jane // Сезон 1, Эпизоды с 1 по 24 (из ...
  • Король драмы / The King of Dramas // Сезон 1, Эпизоды с 1 по 18 (из 18) (20 ...
  • Mylene Farmer / Du Temps [2011, Pop, HDTVRip]
  • Mylene Farmer / Bleu Noir [2011, Pop, HDTVRip]
  • Дождь любви / Love Rain // Сезон 1, Эпизод 1 (из 20) (2012) [HDTV, Любитель ...
  • Король двух сердец / The King 2 Hearts // Сезон 1, Эпизоды с 1 по 20 (из 2 ...
  • Мой мальчик / Ma boy // Сезон 1, Эпизоды с 1 по 3 (из 3) (2012) [TVRip, ори ...
  • Панда и ёж / Panda and Hedgehog // Сезон 1, Эпизоды с 1 по 2 (из 16) (2012) ...
  • Синдром / Syndrome // Сезон 1, Эпизоды с 1 по 20 (из 20) (2012) [HDTVRip, ...
  • Я люблю Ли Тэ Ри / Aileobeu Itaeli / I Love Lee Tae Ri // Сезон 1, Эпизоды ...
  • Король драмы / The King of Dramas // Сезон 1, Эпизоды с 1 по 8 (из 16) (201 ...
  • Информация
    Посетители, находящиеся в группе Гости, не могут оставлять комментарии к данной публикации.