вход на сайт

Имя пользователя :
Пароль :

Восстановление пароля Регистрация
Война цветов / Tazza / War of Flowers // Сезон 1, Эпизоды с 1 по 21 (из 21) (2008) [TVRip, оригинал, софтсаб]
Рейтинг:
(голосов: 1)



[img]{THEME}/images/logopost.png[/img]



Война цветов
Tazza / War of Flowers


Сезон 1, Эпизоды с 1 по 21 (из 21)

Год выпуска: 2008
Страна: Южная Корея
Производство студии: SBS
Жанр: романтика, экшн
Режиссёр: Kang Shin Ho
В ролях:
~ Jang Hyuk в роли Ким Го Ни
~ Yeo Jin Goo в роли Го Ни в детстве
~ Han Ye Seul в роли Ли Нан Сук (Ли Чжи На)
~ Lee Han Na в роли Нан Сук в детстве
~ Kim Min Joon в роли Ли Ён Мин
~ Kim Gab Soo в роли А Кви
~ Son Hyun Joo в роли Го Гван Рюль
~ Kang Sung Yun в роли Чон Чжи Ин (мадам Чон)

Перевод: Фансаб-группа Палата666 & Simonet

1-6 серии: фансаб-группа Палата666
Координатор проекта: Царевна Забава
Переводчики с английского: Gambler, Царевна Забава
Редакторы: Царевна Забава, Merle
7-21 серии: Simonet

Озвучка: Оригинал
Хардсаб: Нет
Софтсаб: Есть (внешний, русский)

Описание:
Это фильм о больших деньгах, смертельном риске и сломанных жизнях. Корея – рай для азартных игр. Но для многих этот рай оборачивается адом.
У старшеклассника Го Ни есть все данные, чтобы быть хорошим игроком. Ловкие руки, внимательные глаза и быстрые ноги, чтобы в случае чего, убежать. Да и острым умом не обделен. Как при таких данных не стать профессиональным шулером? Отец Го Ни тоже был игроком, и это погубило его жизнь. Но от судьбы не уйдешь.
Го Ни, пытаясь помочь другу Ён Мину, проигрывает все деньги своей матери и уходит из дома.
Ён Мину приходится стать помощником босса игорной мафии.
Подруга Го Ни, первая красавица школы - Нан Сук, продана за долги брата-игрока.
Друзья вынуждены расстаться. Но, так или иначе, все они оказываются в этом криминальном мире азартных игр. А это значит, что им еще суждено встретиться, многое испытать и попытаться выжить.
©S.

Качество: TVRip
Продолжительность: 1 эпизод ~ 01:10:00

Формат: AVI
Видео кодек: XviD
Аудио кодек: MP3
Свойства видео: 640x352 (1.82:1), 29.970 fps, XviD MPEG-4 ~1241 kbps avg, 0.18 bit/pixel
Свойства аудио:48 kHz, MPEG Layer 3, 2 ch, ~192.00 kbps avg

отчет MediaInfo ▼Text
General
Complete name : TazzaTazza.E01.avi
Format : AVI
Format/Info : Audio Video Interleave
File size : 789 MiB
Duration : 1h 16mn
Overall bit rate : 1 445 Kbps
Writing application : VirtualDubMod 1.5.10.2 (build 2540/release)
Writing library : VirtualDubMod build 2540/release
Video #0
ID : 0
Format : MPEG-4 Visual
Format profile : Advanced [email protected]
Format settings, BVOP : 2
Format settings, QPel : No
Format settings, GMC : No warppoints
Format settings, Matrix : Default (MPEG)
Muxing mode : Packed bitstream
Codec ID : XVID
Codec ID/Hint : XviD
Duration : 1h 16mn
Bit rate : 1 241 Kbps
Width : 640 pixels
Height : 352 pixels
Display aspect ratio : 16:9
Frame rate : 29.970 fps
Color space : YUV
Chroma subsampling : 4:2:0
Bit depth : 8 bits
Scan type : Progressive
Compression mode : Lossy
Bits/(Pixel*Frame) : 0.184
Stream size : 678 MiB (86%)
Writing library : XviD 1.1.2 (UTC 2006-11-01)
Audio #1
ID : 1
Format : MPEG Audio
Format version : Version 1
Format profile : Layer 3
Mode : Joint stereo
Codec ID : 55
Codec ID/Hint : MP3
Duration : 1h 16mn
Bit rate mode : Constant
Bit rate : 192 Kbps
Channel(s) : 2 channels
Sampling rate : 48.0 KHz
Compression mode : Lossy
Stream size : 105 MiB (13%)
Alignment : Aligned on interleaves
Interleave, duration : 33 ms (1.00 video
13cd878e9a2afe08c02f782764ceb71d2baf8be2Война цветов / Tazza / War of Flowers // Сезон 1, Эпизоды с 1 по 21 (из 21) (2008) [TVRip, оригинал, софтсаб] Война цветов / Tazza / War of Flowers // Сезон 1, Эпизоды с 1 по 21 (из 21) (2008) [TVRip, оригинал, софтсаб] " />

Аплоадер: Админ, дата: 9-05-2012, 19:06, торрент скачан: 359 раз

Понравилась раздача? Посмотрите эти:
  • Наследники. Под тяжестью короны / The Heirs // Сезон 1, Эпизоды с 1 по 16 ...
  • Наследники. Под тяжестью короны / The Heirs // Сезон 1, Эпизоды с 1 по 12 ...
  • Наследники. Под тяжестью короны / The Heirs // Сезон 1, Эпизоды с 1 по 8 ( ...
  • Айрис / IRIS // Сезон 2, Эпизоды с 1 по 12 (из 20) (2013) [HDTVRip, оригин ...
  • Айрис / IRIS // Сезон 2, Эпизоды с 1 по 11 (из 20) (2013) [HDTVRip, оригин ...
  • Айрис / IRIS // Сезон 2, Эпизоды с 1 по 6 (из 20) (2013) [HDTVRip, оригина ...
  • Айрис / IRIS // Сезон 2, Эпизоды с 1 по 4 (из 20) (2013) [HDTVRip, оригина ...
  • Скуби-Ду! Маска Синего Сокола / Scooby-Doo! Mask Of The Blue Falcon (Оливье ...
  • Школа 2013 / School 2013 // Сезон 5, Эпизоды с 1 по 16 (из 16) + special ( ...
  • Айрис / IRIS // Сезон 2, Эпизоды с 1 по 3 (из 20) (2013) [HDTVRip, оригина ...
  • Чемпионат Европы 2012 / Группа C / 1-й тур / Ирландия — Хорватия / ТРК Футб ...
  • Чемпионат Европы 2012 / Группа D / 1-й тур / Украина - Швеция / Спорт 1 [11 ...
  • Олимпиада 2012 / Мужчины / Группа D / 1-й тур / Испания — Япония / НТВ+ [Фу ...
  • Олимпиада 2012 / Футбол / Мужчины / Группа A / 3-й тур / Великобритания - У ...
  • Пир богов / Feast of the Gods // Сезон 1, Эпизоды с 1 по 32 (из 32) (2012) ...
  • Чемпионат Европы 2012 / Группа B / 1-й тур / Германия - Португалия / Спорт ...
  • Ну-ка, улыбнись / Smile, You // Сезон 1, Эпизоды с 1 по 45 (из 45) (2009) [ ...
  • Олимпиада 2012 / Женщины, Мужчины / Плавание / Квалификация / НТВ+ [30.07.2 ...
  • Мой мальчик / Ma boy // Сезон 1, Эпизоды с 1 по 3 (из 3) (2012) [TVRip, ори ...
  • Тысячный мужчина / The Thousandth Man // Сезон 1, Эпизоды с 1 по 8 (из 8) ( ...
  • Информация
    Посетители, находящиеся в группе Гости, не могут оставлять комментарии к данной публикации.