вход на сайт

Имя пользователя :
Пароль :

Восстановление пароля Регистрация
[NG] Мегазаводы. Швейцарский армейский нож / Megafactories Swiss Army Knife (Документальный, 2011) [HDTVRip 720р, Профессиональный (одноголосый закадровый)]
Рейтинг:
(голосов: 1)



[img]{THEME}/images/logopost.png[/img]



Мегазаводы. Швейцарский армейский нож
Megafactories Swiss Army Knife

Страна: США
Производство: National Geographic
Дата выхода в эфир: 2011
Жанр: Документальный
Режиссёр: Трейси Бекетт
Ведущие: Неизвестны
Участники: Urs Wyss, Carl Elsener, Hans Schorno, Vfrkus Burgler и др.
Перевод: Профессиональный (одноголосый закадровый)

Описание: Швейцарский армейский нож — многофункциональный складной нож, оснащённый клинком и несколькими дополнительными инструментами, такими как отвёртки, открывалки, штопор и так далее. В нерабочем положении инструменты находятся внутри рукояти ножа и освобождаются вращением вокруг внутреннего шарнира. Рукоять, как правило, традиционно выполняется с пластиковыми накладками красного цвета. Модель ножа, поставлявшаяся в швейцарскую армию до 2009 г., имеет рукоять из алюминиевого сплава, с изображением креста и щита, символизирующим герб Швейцарии. Хотя нож имеет название армейского, он никогда не использовался в швейцарской армии как оружие, а скорее как подсобный инструмент. На заводе швейцарской компании Викторинокс производится самый известный многофункциональный инструмент - швейцарский армейский нож.

Качество: HDTVRip 720р
Продолжительность: 00:44:57

Формат: MKV
Видео кодек: AVC
Аудио кодек: MP3
Свойства видео: 1280x720 (16:9), 25.000 fps, AVC ~4 250 kbps avg, 0.184 bit/pixel
Свойства аудио: 48 kHz, MP3, 2/0 (L,R) ch, ~192 kbps | Профессиональный (одноголосый закадровый)
MediaInfo ▼General
Unique ID : 181259320587105625355259620021426000270 (0x885D467B7D4BA6AEB0C1059B56F9118E)
Complete name : /Torrents/home/borodach/data/Швейцарский армейский нож (2011) 720p.mkv
Format : Matroska
Format version : Version 2
File size : 1.40 GiB
Duration : 44mn 59s
Overall bit rate mode : Variable
Overall bit rate : 4 444 Kbps
Encoded date : UTC 2012-05-08 05:43:05
Writing application : mkvmerge v5.5.0 (Healer) built on Apr 6 2012 21:43:24
Writing library : libebml v1.2.3 + libmatroska v1.3.0

Video
ID : 1
Format : AVC
Format/Info : Advanced Video Codec
Format profile : [email protected]
Format settings, CABAC : Yes
Format settings, ReFrames : 3 frames
Muxing mode : Header stripping
Codec ID : V_MPEG4/ISO/AVC
Duration : 44mn 59s
Bit rate mode : Variable
Bit rate : 4 250 Kbps
Maximum bit rate : 40.0 Mbps
Width : 1 280 pixels
Height : 720 pixels
Display aspect ratio : 16:9
Frame rate : 25.000 fps
Color space : YUV
Chroma subsampling : 4:2:0
Bit depth : 8 bits
Scan type : Progressive
Bits/(Pixel*Frame) : 0.184
Stream size : 1.31 GiB (94%)
Writing library : x264 core 116 r2074 2641b9e
Encoding settings : cabac=1 / ref=4 / deblock=1:0:0 / analyse=0x3:0x113 / me=hex / subme=7 / psy=1 / psy_rd=1.00:0.00 / mixed_ref=1 / me_range=16 / chroma_me=1 / trellis=1 / 8x8dct=1 / cqm=0 / deadzone=21,11 / fast_pskip=1 / chroma_qp_offset=-2 / threads=12 / sliced_threads=0 / slices=4 / nr=0 / decimate=1 / interlaced=0 / bluray_compat=1 / constrained_intra=0 / bframes=3 / b_pyramid=1 / b_adapt=1 / b_bias=0 / direct=1 / weightb=1 / open_gop=1 / weightp=0 / keyint=50 / keyint_min=5 / scenecut=40 / intra_refresh=0 / rc_lookahead=40 / rc=2pass / mbtree=1 / bitrate=4250 / ratetol=1.0 / qcomp=0.60 / qpmin=0 / qpmax=69 / qpstep=4 / cplxblur=20.0 / qblur=0.5 / vbv_maxrate=40000 / vbv_bufsize=30000 / nal_hrd=vbr / ip_ratio=1.40 / aq=1:1.00
Default : Yes
Forced : No
Color primaries : BT.709-5, BT.1361, IEC 61966-2-4, SMPTE RP177
Transfer characteristics : BT.709-5, BT.1361
Matrix coefficients : BT.709-5, BT.1361, IEC 61966-2-4 709, SMPTE RP177

Audio
ID : 2
Format : MPEG Audio
Format version : Version 1
Format profile : Layer 3
Mode : Joint stereo
Muxing mode : Header stripping
Codec ID : A_MPEG/L3
Codec ID/Hint : MP3
Duration : 44mn 59s
Bit rate mode : Constant
Bit rate : 192 Kbps
Channel(s) : 2 channels
Sampling rate : 48.0 KHz
Compression mode : Lossy
Stream size : 61.8 MiB (4%)
Language : Russian
Default : Yes
Forced : No




0d667a1e4a782825ba4668ab658d3ab4bcf4ce21[NG] Мегазаводы. Швейцарский армейский нож / Megafactories Swiss Army Knife (Документальный, 2011) [HDTVRip 720р, Профессиональный (одноголосый закадровый)] [NG] Мегазаводы. Швейцарский армейский нож / Megafactories Swiss Army Knife (Документальный, 2011) [HDTVRip 720р, Профессиональный (одноголосый закадровый)] " />

Аплоадер: Админ, дата: 13-05-2012, 19:30, торрент скачан: 359 раз

Понравилась раздача? Посмотрите эти:
  • FLO / NRG [2012, Pop, Dance, MasterRip]
  • Чемпионат Франции 2013-2014 / 1-й тур / Обзор Матчей / Спорт 1 [12.08.2013, ...
  • Чемпионат Испании 2012-13 / 34-й тур / Обзор Тура / НТВ+ [06.05.2013, 720p, ...
  • UFC The Ultimate 100 Knockouts - PPV [MMA,2013, HDTVRip 720p]
  • Чемпионат Мира по хоккею 2013 / Четвертьфинал / Россия - США / 1 HD [Хокке ...
  • Кориолан / Coriolanus (Рэйф Файнс, триллер, драма, 2011) [BDRip-AVC, Дубли ...
  • iГений: Как Стив Джобс изменил мир / iGenius: How Steve Jobs Changed the Wo ...
  • Учитель на замену / Detachment (Тони Кэй, драма, 2011) [BDRip 720р, Професс ...
  • BBC: Большой Барьерный риф (с 1 по 3 из 3) / Great Barrier Reef (Джеймс Бр ...
  • [NG] Мегазаводы: Видеоигра "FIFA 2012" / Megafactories: FIFA 2012 (Документ ...
  • [NG] Растения - монстры (Поразительные растения) / Sex, Drugs and Plants (A ...
  • Футбольный клуб / Чемпионат Европы 2012 / НТВ+ [Футбол, 08.06.2012, HDTVRip ...
  • Чемпионат Европы 2012 / Группа C / 1-й тур / Ирландия — Хорватия / Спорт 1 ...
  • Товарищеский матч / США - Бразилия / ESPN [16.07.2012, Баскетбол, WEB-DLRip ...
  • Английская Премьер-Лига 2012-13 / Тур 20 / Арсенал - Ньюкасл Юнайтед [футбо ...
  • Mylene Farmer / Du Temps [2011, Pop, HDTVRip]
  • Mylene Farmer / Bleu Noir [2011, Pop, HDTVRip]
  • Английская Премьер-Лига 2012-13 / Тур 19 / Манчестер Юнайтед - Ньюкасл Юнай ...
  • NBA 2011-2012 / RS / Miami Heat @ Chicago Bulls / TNT [Баскетбол, 12.04.201 ...
  • [NG] Мегазаводы. Швейцарский армейский нож / Megafactories Swiss Army Knife ...
  • Лига Чемпионов 2011-12 / 1/2 финала / Первый матч / Челси (Англия) - Барсел ...
  • Лига Чемпионов 2011-12 / 1/2 финала / Ответный матч / Реал (Испания) - Бава ...
  • The Dream Team - NBA TV Documentary [Баскетбол,13.06.2012, HDTVRip/720p, MP ...
  • Церемония открытия летних Олимпийских игр 2012 в Лондоне. НТВ + [27.08.2012 ...
  • Десять казней Египетских. Первые кары / Secrets Of The 10 Plagues. The Firs ...
  • Информация
    Посетители, находящиеся в группе Гости, не могут оставлять комментарии к данной публикации.