вход на сайт

Имя пользователя :
Пароль :

Восстановление пароля Регистрация
[NG] Растения - монстры (Поразительные растения) / Sex, Drugs and Plants (Amazing Plants) (Документальный, 2009) [HDTVRip 720р, Профессиональный (многоголосый закадровый) + Оригинал]
Рейтинг:
(голосов: 1)



[img]{THEME}/images/logopost.png[/img]



Растения - монстры (Поразительные растения)
Sex, Drugs and Plants (Amazing Plants)

Страна: США
Производство: National Geographic
Дата выхода в эфир: 2009
Жанр: Документальный
Режиссёр: Мартин Уиллис
Ведущие: Неизвестны
Участники: Флора
Перевод: Профессиональный (многоголосый закадровый) (СВ-Дубль) + Оригинал

Описание: Вокруг нас происходит нечто удивительное. Растения, цветы начинают разговаривать. И они могут поделиться невероятными секретами. В борьбе за выживание, некоторые растения похожи на людей. Они помогают соседям, строят отношения и любят покрасоваться. А в тяжелые времена, они обманывают, крадут и даже убивают. Растения жизненно важны для нас. Чем больше мы их понимаем, что растения пытаются сказать нам, тем больше мы можем помочь им, и тем больше они могут помочь нам. Добро пожаловать в странный, романтичный и порой жестокий мир растений-монстров.

Качество: HDTVRip 720р
Продолжительность: 00:46:44

Формат: MKV
Видео кодек: AVC
Аудио кодек: AC3 Dolby Digital
Свойства видео: 1280x720 (16:9), 25.000 fps, AVC ~2959 kbps avg, 0.128 bit/pixel
Свойства аудио: 48 kHz, AC3 Dolby Digital, 2/0 (L,R) ch, ~192 kbps | Профессиональный (многоголосый закадровый) (СВ-Дубль)
Свойства аудио: 48 kHz, AC3 Dolby Digital, 3/2 (L,C,R,l,r) + LFE ch, 384 kbps | Оригинал
MI ▼General
Unique ID : 246850156343302813427604122007264296075 (0xB9B59C5C973FDF0E99ED8E11C7E7FC8B)
Complete name : /Torrents/home/borodach/data/Sex Drugs and Plants (2009).720p.mkv
Format : Matroska
Format version : Version 2
File size : 1.15 GiB
Duration : 46mn 44s
Overall bit rate : 3 537 Kbps
Encoded date : UTC 2012-04-21 13:27:56
Writing application : mkvmerge v4.5.0 (Speed of Light) сборка от Feb 1 2011 02:10:32
Writing library : libebml v1.2.0 + libmatroska v1.1.0

Video
ID : 1
Format : AVC
Format/Info : Advanced Video Codec
Format profile : [email protected]
Format settings, CABAC : Yes
Format settings, ReFrames : 5 frames
Codec ID : V_MPEG4/ISO/AVC
Duration : 46mn 44s
Bit rate : 2 959 Kbps
Width : 1 280 pixels
Height : 720 pixels
Display aspect ratio : 16:9
Frame rate : 25.000 fps
Color space : YUV
Chroma subsampling : 4:2:0
Bit depth : 8 bits
Scan type : Progressive
Bits/(Pixel*Frame) : 0.128
Stream size : 966 MiB (82%)
Writing library : x264 core 114 r1924 08d04a4
Encoding settings : cabac=1 / ref=5 / deblock=1:0:0 / analyse=0x3:0x133 / me=umh / subme=7 / psy=1 / psy_rd=1.00:0.00 / mixed_ref=1 / me_range=16 / chroma_me=1 / trellis=1 / 8x8dct=1 / cqm=0 / deadzone=21,11 / fast_pskip=0 / chroma_qp_offset=-2 / threads=6 / sliced_threads=0 / nr=0 / decimate=1 / interlaced=0 / constrained_intra=0 / bframes=3 / b_pyramid=2 / b_adapt=1 / b_bias=0 / direct=1 / weightb=1 / open_gop=0 / weightp=2 / keyint=250 / keyint_min=25 / scenecut=40 / intra_refresh=0 / rc_lookahead=40 / rc=2pass / mbtree=1 / bitrate=2959 / ratetol=1.0 / qcomp=0.60 / qpmin=0 / qpmax=69 / qpstep=4 / cplxblur=20.0 / qblur=0.5 / ip_ratio=1.40 / aq=1:1.00
Default : Yes
Forced : No

Audio #1
ID : 2
Format : AC-3
Format/Info : Audio Coding 3
Mode extension : CM (complete main)
Codec ID : A_AC3
Duration : 46mn 44s
Bit rate mode : Constant
Bit rate : 192 Kbps
Channel(s) : 2 channels
Channel positions : Front: L R
Sampling rate : 48.0 KHz
Bit depth : 16 bits
Compression mode : Lossy
Stream size : 64.2 MiB (5%)
Title : SV-Double
Language : Russian
Default : Yes
Forced : No

Audio #2
ID : 3
Format : AC-3
Format/Info : Audio Coding 3
Mode extension : CM (complete main)
Codec ID : A_AC3
Duration : 46mn 44s
Bit rate mode : Constant
Bit rate : 384 Kbps
Channel(s) : 6 channels
Channel positions : Front: L C R, Side: L R, LFE
Sampling rate : 48.0 KHz
Bit depth : 16 bits
Compression mode : Lossy
Stream size : 128 MiB (11%)
Title : Original
Language : English
Default : No
Forced : No





45941f92844acf19c5686866615a4dc4662c02bb[NG] Растения - монстры (Поразительные растения) / Sex, Drugs and Plants (Amazing Plants) (Документальный, 2009) [HDTVRip 720р, Профессиональный (многоголосый закадровый) + Оригинал] [NG] Растения - монстры (Поразительные растения) / Sex, Drugs and Plants (Amazing Plants) (Документальный, 2009) [HDTVRip 720р, Профессиональный (многоголосый закадровый) + Оригинал] " />

Аплоадер: Админ, дата: 26-04-2012, 13:09, торрент скачан: 359 раз

Понравилась раздача? Посмотрите эти:
  • Погнали! / Getaway (Кортни Соломон, боевик, криминал, 2013) [BDRip 720p, Пр ...
  • Добро пожаловать в капкан / Welcome to the Punch (Эрен Криви, боевик, трил ...
  • UFC The Ultimate 100 Knockouts - PPV [MMA,2013, HDTVRip 720p]
  • Смерть на похоронах / Death at a Funeral (Нил ЛаБут, комедия, 2010) [BDRip ...
  • Отдел 13 / Diamant 13 (Гайллз Бэхат, Боевик, триллер, криминал, 2009) [BDRi ...
  • Растения против Зомби / Plants vs. Zombies (2012) Multi [Symbian]
  • Растения против Зомби / Plants vs. Zombies v1.98.30 (2013) Английский [And ...
  • Убить по расписанию / Ticking Clock (Эрни Барбараш, фантастика, боевик, три ...
  • Шелуха / Husk (Бретт Симмонс, ужасы, триллер, 2011) [BDRip 720p, Профессион ...
  • Властелин измерений / Grande ourse - La cle des possibles (Патрис Сов, фант ...
  • Далеко-далеко / Far and Away (Рон Ховард, драма, мелодрама, приключения, ве ...
  • Похищенная / A Lonely Place to Die (Джулиан Джилби, триллер, криминал, прик ...
  • Небесные охотники. Мир стрекоз / Libellen. Die Himmelsjaeger (Курт Мюндл, Д ...
  • Чемпионат Европы 2012 / 1/4 финала / Чехия - Португалия / Спорт 1 HD [Футбо ...
  • Формула 1. Сезон 2012. Этап 13 из 20. Гран-При Италии, Квалификация. [2012 ...
  • Mylene Farmer / Du Temps [2011, Pop, HDTVRip]
  • Mylene Farmer / Bleu Noir [2011, Pop, HDTVRip]
  • Растения против зомби / Plants vs Zomvies (2011) English [iPad]
  • Футбольные гладиаторы / Ушедшее время / Awaydays (Пэт Холден, драма, кримин ...
  • [BBC] Невидимая жизнь растений / The Private Life of Plants // Сезон 1, вып ...
  • Информация
    Посетители, находящиеся в группе Гости, не могут оставлять комментарии к данной публикации.