вход на сайт

Имя пользователя :
Пароль :

Восстановление пароля Регистрация
Суперсооружения: Супертрубопровод / Megastructures: Super Pipeline (Документальный, 2006) [HDTV720p, Профессиональный (одноголосый)+Оригинал]
Рейтинг:
(голосов: 1)



[img]{THEME}/images/logopost.png[/img]



Суперсооружения: Супертрубопровод / Megastructures: Super Pipeline
Страна: США
Производство: National Geographic
Год Выпуска: 2006
Жанр: Документальный

Перевод: Профессиональный (одноголосый) + Оригинал
Русские субтитры: нет

Описание:Это один из самых рискованных проектов газовой индустрии. Сооружение самого протяженного в мире трубопровода. Гигантские суда уложат сто тысяч труб, которые соединят Норвегию и Великобританию. На морском дне, напоминающем лунный ландшафт, современные роботы проложат траншею, в местах недоступных для человека. Уцелеет ли то, что будет создано в суровом северном море?
В 120 км от побережья Норвегии находится одно из крупнейших в северном море глубоководных газовых месторождений. При величине 40 на 10 км, оно содержит более 300 миллиардов кубометров газа.

Media info
▼General
Complete name : C:National Geographic. Megastructures - Super Pipeline. (720p.hdtv.x264).mkv
Format : Matroska
File size : 1.08 GiB
Duration : 46mn 58s
Overall bit rate : 3 299 Kbps
Encoded date : UTC 2009-10-19 03:23:42
Writing application : mkvmerge v2.4.1 (Use Me) built on Dec 5 2008 18:30:05
Writing library : libebml v0.7.7 + libmatroska v0.8.1

Video
ID : 1
Format : AVC
Format/Info : Advanced Video Codec
Format profile : [email protected]
Format settings, CABAC : Yes
Format settings, ReFrames : 5 frames
Muxing mode : Container [email protected]
Codec ID : V_MPEG4/ISO/AVC
Duration : 46mn 58s
Bit rate : 2 881 Kbps
Nominal bit rate : 2 943 Kbps
Width : 1 280 pixels
Height : 720 pixels
Display aspect ratio : 16:9
Frame rate : 25.000 fps
Resolution : 24 bits
Colorimetry : 4:2:0
Scan type : Progressive
Bits/(Pixel*Frame) : 0.125
Stream size : 968 MiB (87%)
Writing library : x264 core 60 r900 a9af942
Encoding settings : cabac=1 / ref=5 / deblock=1:0:0 / analyse=0x3:0x133 / me=umh / subme=6 / brdo=1 / mixed_ref=1 / me_range=8 / chroma_me=1 / trellis=1 / 8x8dct=1 / cqm=0 / deadzone=21,11 / chroma_qp_offset=0 / threads=3 / nr=0 / decimate=1 / mbaff=0 / bframes=3 / b_pyramid=1 / b_adapt=1 / b_bias=0 / direct=3 / wpredb=1 / bime=1 / keyint=250 / keyint_min=50 / scenecut=40(pre) / rc=2pass / bitrate=2943 / ratetol=1.0 / rceq=blurCplx^(1-qComp) / qcomp=1.00 / qpmin=10 / qpmax=51 / qpstep=4 / cplxblur=20.0 / qblur=0.5 / ip_ratio=1.40 / pb_ratio=1.30 / aq=2:1.00
Language : English

Audio #1
ID : 2
Format : AC-3
Format/Info : Audio Coding 3
Codec ID : A_AC3
Duration : 46mn 58s
Bit rate mode : Constant
Bit rate : 128 Kbps
Channel(s) : 2 channels
Channel positions : L R
Sampling rate : 48.0 KHz
Stream size : 43.0 MiB (4%)
Language : Russian

Audio #2
ID : 3
Format : AC-3
Format/Info : Audio Coding 3
Codec ID : A_AC3
Duration : 46mn 58s
Bit rate mode : Constant
Bit rate : 224 Kbps
Channel(s) : 2 channels
Channel positions : L R
Sampling rate : 48.0 KHz
Stream size : 75.3 MiB (7%)
Language : English



Качество: HDTV
Формат: MKV
Видео кодек: x264
Аудио кодек: AC3
Видео: 720p (1280 x 720 pixels), 25.000 fps, 2881 Kbps
Аудио Russian: DD 2.0, 128 kbps
Аудио English: DD 2.0, 224 kbps


Релиз Группы Virtus


Проверено: Anwar


184f8767d4eae1e283af191c11bd15b6366748f2Суперсооружения: Супертрубопровод / Megastructures: Super Pipeline (Документальный, 2006) [HDTV720p, Профессиональный (одноголосый)+Оригинал] Суперсооружения: Супертрубопровод / Megastructures: Super Pipeline (Документальный, 2006) [HDTV720p, Профессиональный (одноголосый)+Оригинал] " />

Аплоадер: Админ, дата: 3-01-2010, 00:49, торрент скачан: 359 раз

Понравилась раздача? Посмотрите эти:
  • [NG] Суперсооружения Третьего рейха. Супертанки / Nazi megastructures. Supe ...
  • Добро пожаловать в капкан / Welcome to the Punch (Эрен Криви, боевик, трил ...
  • UFC The Ultimate 100 Knockouts - PPV [MMA,2013, HDTVRip 720p]
  • Дитя человеческое / Children of Men (Альфонсо Куарон, фантастика, триллер, ...
  • Роб Рой / Rob Roy (Майкл Кейтон-Джонс, боевик, драма, мелодрама, 1995) [BDR ...
  • Приготовление и начало / Prep And Landing (Кевин Детерс, мультфильм, коротк ...
  • На задней парте / 4 выпуска из (4) (Угаров Валерий Михайлович, короткометра ...
  • Вся королевская рать / All the Kings Men (Стивен Зеллиан, триллер, драма, 2 ...
  • Путешествие на край Вселенной / Journey to the Edge of the Universe (Явар А ...
  • Небесные охотники. Мир стрекоз / Libellen. Die Himmelsjaeger (Курт Мюндл, Д ...
  • National Geographic: Суперсооружения: Дворец мечты в Дубае. / Megastructure ...
  • [Discovery] Механизмы организма / The Body Machine (Робин Бикнелл, Документ ...
  • [NG] Мегазаводы / Megafactories // Выпуски 1-33 (из?) (Документальный, 2001 ...
  • [NG] Растения - монстры (Поразительные растения) / Sex, Drugs and Plants (A ...
  • Mylene Farmer / Du Temps [2011, Pop, HDTVRip]
  • Mylene Farmer / Bleu Noir [2011, Pop, HDTVRip]
  • PBS: Природа – Гималаи / PBS: Nature – The Himalayas (Крис Морган, Докумен ...
  • [NG]Суперсооружения: Мегазаводы. Бугатти / MegaStructures. Megafactories: B ...
  • Madonna / Girl Gone Wild [2012, Pop, HDTV]
  • Десять казней Египетских. Первые кары / Secrets Of The 10 Plagues. The Firs ...
  • Информация
    Посетители, находящиеся в группе Гости, не могут оставлять комментарии к данной публикации.