вход на сайт

Имя пользователя :
Пароль :

Восстановление пароля Регистрация
National Geographic: Суперсооружения: Дворец мечты в Дубае. / Megastructures: Dubais Dream Palace. [2007 г., Документальный][ HDTV, 720p,Профессиональный (одноголосый)]
Рейтинг:
(голосов: 1)



[img]{THEME}/images/logopost.png[/img]



National Geographic: Суперсооружения: Дворец мечты в Дубае. / Megastructures: Dubais Dream Palace.[/b]


Страна: США
Производство: National Geographic
Год Выпуска: 2007
Жанр: Документальный

Перевод: Профессиональный (одноголосый)
Русские субтитры: нет

Описание: На побережье Дубаи находится одно из самых невероятных зданий на планете. Возвышаясь на 305 метров, оно превосходит Эйфелеву башню. Это самый высокий отель на планете и возможно самый роскошный. Он построен, чтобы удивлять. Он называется "Бурдж аль-Араб", что значит "Арабская Башня". Но чтобы создать этот символ 21-го века, всем участникам проекта пришлось приложить огромные усилия.

Здание стоит в море на расстоянии 280 метров от берега на искусственном острове, соединённом с землёй при помощи моста. Имея высоту 321 метр, здание недавно утратило статус самого высокого отеля в мире, так как в апреле 2008 года, здесь же, в Дубае, открылся отель Башня Розы высотой 333 метра.

Строительство отеля началось в 1994 году, для посетителей он открылся 1 декабря 1999 года. Отель был построен в виде паруса доу, арабского судна. Ближе к верху находится вертолётная площадка, а с другой стороны — ресторан «Аль-Мунтаха» (араб. ?? Высочайший), оба поддерживаются консольными балками.

Холл отеля состоит из двух этажей. На первом этаже производится регистрация проживающих в отеле, на втором этаже холла расположены магазины и кафе, а также коридор, ведущий к скоростным лифтам. В холле коридора, на полу, имеется уникальная мозаика. Подъем на второй этаж осуществляется с помощью эскалаторов, с правой стороны осуществляется подъем вверх, а с левой - вниз. Рядом с эскалаторами в стене вмонтированы аквариумы, а между ними находится ступенчатый струйный фонтан с подсветкой.


Media info
▼General
Complete name : C:National Geographic. Megastructures - Dubais Dream Palace. (720p.hdtv.x264).mkv
Format : Matroska
File size : 1.15 GiB
Duration : 49mn 58s
Overall bit rate : 3 301 Kbps
Encoded date : UTC 2009-10-21 23:58:03
Writing application : mkvmerge v2.4.1 (Use Me) built on Dec 5 2008 18:30:05
Writing library : libebml v0.7.7 + libmatroska v0.8.1

Video
ID : 1
Format : AVC
Format/Info : Advanced Video Codec
Format profile : [email protected]
Format settings, CABAC : Yes
Format settings, ReFrames : 6 frames
Muxing mode : Container [email protected]
Codec ID : V_MPEG4/ISO/AVC
Duration : 49mn 58s
Bit rate : 2 563 Kbps
Nominal bit rate : 2 625 Kbps
Width : 1 280 pixels
Height : 720 pixels
Display aspect ratio : 16:9
Frame rate : 25.000 fps
Resolution : 24 bits
Colorimetry : 4:2:0
Scan type : Progressive
Bits/(Pixel*Frame) : 0.111
Stream size : 916 MiB (78%)
Writing library : x264 core 57 svn-709C
Encoding settings : cabac=1 / ref=3 / deblock=1:0:0 / analyse=0x3:0x133 / me=hex / fpel_cmp=sad / subme=6 / me-prepass=0 / brdo=1 / mixed_ref=1 / me_range=16 / chroma_me=1 / trellis=1 / 8x8dct=1 / cqm=0 / deadzone=21,11 / chroma_qp_offset=0 / threads=3 / nr=0 / decimate=1 / mbaff=0 / bframes=3 / b_pyramid=1 / b_adapt=1 / b_bias=0 / direct=1 / wpredb=1 / bime=1 / keyint=250 / keyint_min=25 / scenecut=40(pre) / rc=2pass / bitrate=2625 / ratetol=1.0 / rceq=blurCplx^(1-qComp) / qcomp=0.60 / qpmin=10 / qpmax=51 / qpstep=4 / cplxblur=20.0 / qblur=0.5 / ip_ratio=1.40 / pb_ratio=1.30
Language : English

Audio #1
ID : 2
Format : AC-3
Format/Info : Audio Coding 3
Codec ID : A_AC3
Duration : 49mn 58s
Bit rate mode : Constant
Bit rate : 448 Kbps
Channel(s) : 6 channels
Channel positions : Front: L C R, Surround: L R, LFE
Sampling rate : 48.0 KHz
Stream size : 160 MiB (14%)
Language : Russian

Audio #2
ID : 3
Format : AC-3
Format/Info : Audio Coding 3
Codec ID : A_AC3
Duration : 49mn 58s
Bit rate mode : Constant
Bit rate : 224 Kbps
Channel(s) : 2 channels
Channel positions : L R
Sampling rate : 48.0 KHz
Stream size : 80.1 MiB (7%)
Language : English


Качество: HDTV
Продолжительность: 00:49:58
06995142561969d89d707db75effbcc8e48859d3National Geographic: Суперсооружения: Дворец мечты в Дубае. / Megastructures: Dubais Dream Palace. [2007 г., Документальный][ HDTV, 720p,Профессиональный (одноголосый)] National Geographic: Суперсооружения: Дворец мечты в Дубае. / Megastructures: Dubais Dream Palace. [2007 г., Документальный][ HDTV, 720p,Профессиональный (одноголосый)] " />

Аплоадер: Админ, дата: 20-12-2009, 19:53, торрент скачан: 359 раз

Понравилась раздача? Посмотрите эти:
  • [NG] Суперсооружения Третьего рейха. Супертанки / Nazi megastructures. Supe ...
  • [NG] Суперсооружения Третьего рейха. Реактивные пещеры Гитлера / Nazi megas ...
  • [NG] Крайний рубеж телескопа Хаббл / Hubble`s Final Frontier (документальны ...
  • NG:Мое 11 сентября / My 9/11 (документальный, 2011) [HDTVRip, закадровый ,о ...
  • UFC The Ultimate 100 Knockouts - PPV [MMA,2013, HDTVRip 720p]
  • Дитя человеческое / Children of Men (Альфонсо Куарон, фантастика, триллер, ...
  • Приготовление и начало / Prep And Landing (Кевин Детерс, мультфильм, коротк ...
  • National Geographic: Запреты. Смена пола / Taboo. Sex Swap (Документальный, ...
  • Гиена - царица хищников / Bonecrusher Queens (National Geographic, документ ...
  • Путешествие на край Вселенной / Journey to the Edge of the Universe (Явар А ...
  • Суперсооружения: Супертрубопровод / Megastructures: Super Pipeline (Докумен ...
  • [Discovery] Механизмы организма / The Body Machine (Робин Бикнелл, Документ ...
  • [NG] Суперсооружения: Самый большой шатер в мире / MegaStructures. Worlds B ...
  • [NG] Мегазаводы / Megafactories // Выпуски 1-33 (из?) (Документальный, 2001 ...
  • National Geographic Суперсооружения: Большой адронный коллайдер / Megastruc ...
  • National Geographic: Суперсооружения [Мегаструктуры] / MegaStructures [62 ...
  • [NG] Суперсооружения: Супернебоскреб / Megastructures: ScyScraper (Научно п ...
  • Суперкубок Испании 2010 / ответный матч+награждение, Барселона – Севилья / ...
  • [NG]Суперсооружения: Мегазаводы. Бугатти / MegaStructures. Megafactories: B ...
  • [NG] Суперсооружения. Подвесной мост над Гранд Каньоном / Megastructures. G ...
  • [NG] Суперсооружения: Мегазаводы. Кока-Кола / MegaStructures. Megafactories ...
  • [NG] Суперсооружения. Мега-слом: Ремонт локомотивов / Megastructures. Mega ...
  • Madonna / Girl Gone Wild [2012, Pop, HDTV]
  • The Dream Team - NBA TV Documentary [Баскетбол,13.06.2012, HDTVRip/720p, MP ...
  • Десять казней Египетских. Первые кары / Secrets Of The 10 Plagues. The Firs ...
  • Информация
    Посетители, находящиеся в группе Гости, не могут оставлять комментарии к данной публикации.