вход на сайт

Имя пользователя :
Пароль :

Восстановление пароля Регистрация
[NG] Путешествие по Атлантике: Часть 2 / Travel across the Atlantic: Part 2 (Документальный, 2012) [HDTV, Профессиональный (одноголосый, закадровый)]
Рейтинг:
(голосов: 1)



[img]{THEME}/images/logopost.png[/img]



Путешествие по Атлантике: Часть 2
Travel across the Atlantic: Part 2
Страна: США
Производство: Aden Production
Год выпуска: 2012
Жанр: Документальный, научно-популярный
Режиссёр: Emma Ford,Jonh Trefor
Ведущие: Отсутствуют
Участники: Животные
Перевод: Профессиональный (одноголосый (Денис Некрасов, Арк ТВ))

Описание: Путешествие по Атлантике: Часть 2
Мы продолжим путь через Францию к Великобритании, и познакомимся с крупнейшей в мире белкой, необычным ежом-блондином и заблудившимися птицами.
Доп. информация: Собственная запись от 18.05.2013

Качество: HDTV
Продолжительность: 00:44:59

Формат:TS
Видео кодек: H.264
Аудио кодек: MP2
Свойства видео: 1920x1080, 25,000 кадров/сек, ~11.0 Мбит/сек
Свойства аудио: 48,0 КГц, 2ch stereo, 192 Кбит/секТех. данные ▼E:NAT GEO WILD HDÏóòåøåñòâèÿ ïî Àíòëàíòèêå. ×àñòü 2 1080i.ts
General #1
ID : 1 (0x1)
Complete name : E:NAT GEO WILD HDÏóòåøåñòâèÿ ïî Àíòëàíòèêå. ×àñòü 2 1080i.ts
Format : MPEG-TS
File size : 2.50 GiB
Duration : 44mn 59s
Overall bit rate mode : Variable
Overall bit rate : 7 962 Kbps
Video #321
ID : 321 (0x141)
Menu ID : 1 (0x1)
Format : AVC
Format/Info : Advanced Video Codec
Format profile : [email protected]
Format settings, CABAC : Yes
Format settings, ReFrames : 3 frames
Codec ID : 27
Duration : 44mn 59s
Bit rate : 7 375 Kbps
Width : 1 920 pixels
Height : 1 080 pixels
Display aspect ratio : 16:9
Frame rate : 25.000 fps
Standard : Component
Color space : YUV
Chroma subsampling : 4:2:0
Bit depth : 8 bits
Scan type : Interlaced
Scan order : Top Field First
Bits/(Pixel*Frame) : 0.142
Stream size : 2.32 GiB (93%)
Color primaries : BT.709
Transfer characteristics : BT.709
Matrix coefficients : BT.709
Audio #401
ID : 401 (0x191)
Menu ID : 1 (0x1)
Format : MPEG Audio
Format version : Version 1
Format profile : Layer 2
Codec ID : 3
Duration : 44mn 58s
Bit rate mode : Constant
Bit rate : 192 Kbps
Channel(s) : 2 channels
Sampling rate : 48.0 KHz
Compression mode : Lossy
Stream size : 61.8 MiB (2%)
Language : Russian



Раздача Beeline


7e0966611e60260af3f3b1ede11dc66bf3faae0c[NG] Путешествие по Атлантике: Часть 2 / Travel across the Atlantic: Part 2 (Документальный, 2012) [HDTV, Профессиональный (одноголосый, закадровый)] [NG] Путешествие по Атлантике: Часть 2 / Travel across the Atlantic: Part 2 (Документальный, 2012) [HDTV, Профессиональный (одноголосый, закадровый)] " />

Аплоадер: Админ, дата: 18-05-2013, 14:30, торрент скачан: 359 раз

Понравилась раздача? Посмотрите эти:
  • Iconic Images / Namibia [2012, Art, Travel, Nature, Master]
  • Dubai / Hyper Time Lapse 2 [2013, Art, Travel, Nature, Master]
  • Italia / Hyper Time Lapse [2012, Art, Travel, Nature, Master]
  • Carly Rae Jepsen / Part Of Your World [2013, Pop, BD Remux]
  • Rihanna / What Now [2013, R&B, HDTV]
  • Чемпионат Мира 2014 / Отборочный турнир / Группа I / 10-й тур / Беларусь - ...
  • NG:Мое 11 сентября / My 9/11 (документальный, 2011) [HDTVRip, закадровый ,о ...
  • Чемпионат Англии 2012-2013 / 36-й тур / Манчестер Юнайтед - Челси / Спорт 1 ...
  • Чемпионат Германии 2012-2013 / 32-й тур / Боруссия (Дортмунд) – Бавария / Н ...
  • Чемпионат Испании 2012-13 / 34-й тур / Реал Мадрид - Вальядолид / НТВ+ [04. ...
  • Тележурнал "Евроголы" / Eurosport HD [Футбол, 06.05.2013, 1080i, H264, RU, ...
  • Denis Lebedev VS Guillermo Jones / Денис Лебедев - Гильермо Джонс / Спорт 1 ...
  • [NG] Превосходство бегемота / The superiority of the hippo (Документальный, ...
  • Чемпионат Испании 2011-12 / 35-й тур / Барселона - Реал / Футбол HD [Футбол ...
  • Rihanna / Diamonds (Victorias Secret) [2012, RnB, HDTV 1080i]
  • Голос // Выпуск 13 / Суперфинал (ТВ-шоу, 29.12.2012) [HDTV |1080i|, Не треб ...
  • Melody Gardot / Mira [2012, Jazz, Acoustic, HDTV 1080i]
  • [NG] В глубинах Ледовитого океана / Deepsea Under The Pole (Документальный, ...
  • Бой за титул чемпиона мира по боксу в супертяжелом весе по версии IBF / Вла ...
  • Выжить любой ценой - Сезон 7 / Ultimate Survival - Season 7 (Документальный ...
  • Информация
    Посетители, находящиеся в группе Гости, не могут оставлять комментарии к данной публикации.