вход на сайт

Имя пользователя :
Пароль :

Восстановление пароля Регистрация
[NG] Война львов / Lion Battle Zone (документальный, 2011) [HDTVRip-AVC, Профессиональный (одноголосый, закадровый)]
Рейтинг:
(голосов: 1)



[img]{THEME}/images/logopost.png[/img]



Война львов / Lion Battle Zone


Страна: США
Производство: Nat Geo Wild
Год выпуска: 2011
Жанр: документальный
Режиссёр: Джейм Бернанке / Jaime Bernanke
Ведущие: отсутствует
Участники: Животный Мир...

Перевод: Профессиональный (одноголосый, закадровый)

Описание
Пять львиных прайдов в Африке живут в постоянной конкуренции за пищу, и каждый из них уже выработал свой собственный стиль охоты. Понаблюдайте за тем, как они охотятся за своей добычей: от буйвола до жирафа. Только самые хитрые и искусные охотники смогут выжить в этой среде.


Тех.Данные
Качество: HDTVRip-AVC

Продолжительность: 00:45:00 часа

Формат: Matroska-MKV-
Видео кодек: AVC [email protected]
Аудио кодек: Audio Coding 3
Свойства видео: 1024x576 (16:9), 25 fps, AVC ~1750 kbps avg, 0.119 bit/pixel
Свойства аудио: 48 kHz, Audio Coding 3, 2/0 (L,R) ch, ~192.00 kbps avg

Информация MediaInfo ▼TextОбщее
Уникальный идентификатор : 179720724918504049151340340225798911655 (0x8734F3DBF0625D37950F9583162136A7)
Полное имя : E:DownloadsВойна львов.2011.HDTVRip-AVC.mkv
Формат : Matroska
Версия формата : Version 2
Размер файла : 626 Мбайт
Продолжительность : 44 м.
Общий поток : 1944 Кбит/сек
Дата кодирования : UTC 2013-05-21 13:16:53
Программа кодирования : mkvmerge v5.8.0 (No Sleep / Pillow) built on Sep 2 2012 15:37:04
Библиотека кодирования : libebml v1.2.3 + libmatroska v1.3.0

Видео
Идентификатор : 1
Формат : AVC
Формат/Информация : Advanced Video Codec
Профиль формата : [email protected]
Параметр CABAC формата : Да
Параметр ReFrames формата : 6 кадров
Идентификатор кодека : V_MPEG4/ISO/AVC
Продолжительность : 44 м.
Битрейт : 1750 Кбит/сек
Ширина : 1024 пикселя
Высота : 576 пикселей
Соотношение сторон : 16:9
Частота кадров : 25,000 кадров/сек
Цветовое пространство : YUV
Субдискретизация насыщенности : 4:2:0
Битовая глубина : 8 бит
Тип развёртки : Прогрессивная
Бит/(Пиксели*Кадры) : 0.119
Размер потока : 551 Мбайт (88%)
Библиотека кодирования : x264 core 125 r2208 d9d2288
Настройки программы : cabac=1 / ref=6 / deblock=1:1:1 / analyse=0x3:0x111 / me=umh / subme=9 / psy=1 / psy_rd=0.40:0.00 / mixed_ref=1 / me_range=32 / chroma_me=1 / trellis=2 / 8x8dct=1 / cqm=0 / deadzone=21,11 / fast_pskip=0 / chroma_qp_offset=-2 / threads=3 / lookahead_threads=1 / sliced_threads=0 / nr=0 / decimate=1 / interlaced=0 / bluray_compat=0 / constrained_intra=0 / bframes=5 / b_pyramid=2 / b_adapt=0 / b_bias=0 / direct=1 / weightb=1 / open_gop=0 / weightp=2 / keyint=250 / keyint_min=25 / scenecut=40 / intra_refresh=0 / rc_lookahead=50 / rc=2pass / mbtree=1 / bitrate=1750 / ratetol=1.0 / qcomp=0.60 / qpmin=0 / qpmax=69 / qpstep=4 / cplxblur=20.0 / qblur=0.5 / ip_ratio=1.40 / aq=1:0.60
Default : Да
Forced : Нет

Аудио
Идентификатор : 2
Формат : AC-3
Формат/Информация : Audio Coding 3
Расширение режима : CM (complete main)
Идентификатор кодека : A_AC3
Продолжительность : 44 м.
Вид битрейта : Постоянный
Битрейт : 192 Кбит/сек
Каналы : 2 канала
Расположение каналов : Front: L R
Частота : 48,0 КГц
Битовая глубина : 16 бит
Метод сжатия : С потерями
Размер потока : 61,8 Мбайт (10%)
Default : Да
Forced : Нет




093c1a8ee3e569f8486848fb68758d37fd0c98fe[NG] Война львов / Lion Battle Zone (документальный, 2011) [HDTVRip-AVC, Профессиональный (одноголосый, закадровый)] [NG] Война львов / Lion Battle Zone (документальный, 2011) [HDTVRip-AVC, Профессиональный (одноголосый, закадровый)] " />

Аплоадер: Админ, дата: 22-05-2013, 11:01, торрент скачан: 359 раз

Понравилась раздача? Посмотрите эти:
  • [NG] Комета века / Comet of the century (документальный, 2013) [HDTVRip-AVC ...
  • [NG] Тайная жизнь хищников / Secret Life of Predators // Эпизод 1 по 4 (из ...
  • [BBC] Как устроена природа / BBC. How Nature Works // Эпизод 1 по 4 (из 4) ...
  • Башня / The Tower (Чи-хун Ким, драма, 2012) [BDRip-AVC, Любительский (двухг ...
  • Голодная жена и горячий любовник / La moglie in bianco... lamante al pepe ( ...
  • Земля Чато / Chatos Land (Майкл Уиннер, вестерн, 1972) [DVDRip-AVC, Професс ...
  • Обман Обамы / The Obama Deception: The Mask Comes Off (Документальный, 2009 ...
  • Гараж (Эльдар Рязанов, драма, комедия, 1979) [DVDRip-AVC, Оригинал (русский ...
  • Голливудский мусор / Garbage (Филипп Волкен, драма, комедия, 2013) [HDTVRip ...
  • [NG] Медоеды: Змеиные убийцы / Honey Badgers of the Kalahari. Snake Killers ...
  • [BBC] BBC: Безжалостные убийцы / BBC: Ultimate Killers // Выпуск 1 по 3 (из ...
  • Рикошет / Ricochet (Ник Гомез, драма, детектив, 2011) [BDRip-AVC, Профессио ...
  • [BBC] BBC: Змеи / Wildlife Special. Serpent (Документальный, 2003) [DVDRip- ...
  • Дикая Южная Африка. По Следам Белых Акул / Wildlife South Africa: Western C ...
  • [NG] На крючке: Ловля монстров. Гигантский скат / Monster Fish. Giant Sting ...
  • Новые технологии войны / The New Technology of War [Часть 1] (документальны ...
  • Новые технологии войны / The New Technology of War [Часть 2] (документальны ...
  • Дикий запад. Кино и реальность / The Wild And The West (документальный, 200 ...
  • Кошмары на стоянке трейлеров / Trailer Park of Terror (Стивен Голдманн, ужа ...
  • Суррогат / The Sessions (Бен Луин, Драма, 2012) [BDRip-AVC, Профессиональны ...
  • Чемпионат Англии 2012-2013 / 25-й тур / Обзор / Суббота / BBC Sport [2013 г ...
  • Лоракс: Серенада / The Lorax: Serenade (Кайл Балда, мультфильм, комедия, му ...
  • [NG] Гитлеровские лагеря смерти / Hitlers G.I. Death Camp (документальный, ...
  • Чемпионат Мира 2014 | Отборочный турнир | Европа | World Cup Qualifiers - H ...
  • Чемпионат Англии 2012-2013 / 19-й тур / Обзор / Среда / BBC Sport [2012 г., ...
  • Информация
    Посетители, находящиеся в группе Гости, не могут оставлять комментарии к данной публикации.