вход на сайт

Имя пользователя :
Пароль :

Восстановление пароля Регистрация
[Discovery] Тайны боевых искусств / Fight Quest // Сезон 1, Эпизод 1 по 4 (из 4) (документальный, спорт, 2007) [BDRip-AVC, Профессиональный (одноголосый, закадровый)]
Рейтинг:
(голосов: 1)



[img]{THEME}/images/logopost.png[/img]



Discovery: Тайны боевых искусств / Fight Quest

Страна: США
Производство: NorthSouth Productions
Год выпуска: 2007
Жанр: документальный, спорт
Режиссёр: Чак Смит
Ведущие: отсутствует
Участники: Дугласс Андерсон, Джимми Смит, Риксон Грейси, Royler Gracie

Перевод: Профессиональный (одноголосый, закадровый)

Описание: Два парня путешествуют по миру, чтобы проверить свои бойцовские качества и храбрость, а так же выяснить, какой уровень их боевого мастерства и мужества. Первый из них - Джимми Смит, бывший учитель математики из Лос-Анджелеса, а теперь профессиональный борец. Второй - Даг Андерсон, ветеран войны в Ираке и боксер-любитель из штата Нью-Джерси. Их путь пройдет по разным странам, они посетят школы самых знаменитых видов единоборств и боевых искусств. Их ждут изнурительные тренировки, строгие и безжалостные инструктора и учителя, и заключительный полноконтактный спарринг с лучшими бойцами... Они не боятся ничего, главное - выстоять!



Качество: BDRip-AVC
Формат: Matroska-MKV-
Продолжительность: 3x ~ 00:43:00 часа - Средняя продолжительность для одного эпизода

Информация MediaInfo ▼TextОбщее
Уникальный идентификатор : 246453906877336278926271353832437242164 (0xB9694BC13131DCFBAEF2D7394C54D934)
Полное имя : E:DownloadsТайны боевых искусств.2007.BDRip-AVC1.Китай.Ушу-саньда.BDRip-AVC.mkv
Формат : Matroska
Версия формата : Version 2
Размер файла : 546 Мбайт
Продолжительность : 42 м.
Общий поток : 1780 Кбит/сек
Название фильма : China Wushu Sanda 720p AtZLIT
Дата кодирования : UTC 2013-08-05 05:27:12
Программа кодирования : mkvmerge v6.1.0 (Old Devil) built on Mar 4 2013 09:10:42
Библиотека кодирования : libebml v1.3.0 + libmatroska v1.4.0

Видео
Идентификатор : 1
Формат : AVC
Формат/Информация : Advanced Video Codec
Профиль формата : [email protected]
Параметр CABAC формата : Да
Параметр ReFrames формата : 5 кадров
Идентификатор кодека : V_MPEG4/ISO/AVC
Продолжительность : 42 м.
Битрейт : 1650 Кбит/сек
Ширина : 1024 пикселя
Высота : 576 пикселей
Соотношение сторон : 16:9
Частота кадров : 25,000 кадров/сек
Цветовое пространство : YUV
Субдискретизация насыщенности : 4:2:0
Битовая глубина : 8 бит
Тип развёртки : Прогрессивная
Бит/(Пиксели*Кадры) : 0.112
Размер потока : 496 Мбайт (91%)
Библиотека кодирования : x264 core 130 r2273 b3065e6
Настройки программы : cabac=1 / ref=5 / deblock=1:-2:-2 / analyse=0x3:0x111 / me=umh / subme=9 / psy=1 / psy_rd=0.00:0.10 / mixed_ref=1 / me_range=32 / chroma_me=1 / trellis=2 / 8x8dct=1 / cqm=0 / deadzone=21,11 / fast_pskip=0 / chroma_qp_offset=-1 / threads=6 / lookahead_threads=1 / sliced_threads=0 / nr=0 / decimate=1 / interlaced=0 / bluray_compat=0 / constrained_intra=0 / bframes=5 / b_pyramid=2 / b_adapt=0 / b_bias=0 / direct=1 / weightb=1 / open_gop=0 / weightp=2 / keyint=250 / keyint_min=25 / scenecut=40 / intra_refresh=0 / rc_lookahead=50 / rc=2pass / mbtree=1 / bitrate=1650 / ratetol=1.0 / qcomp=0.60 / qpmin=0 / qpmax=69 / qpstep=4 / cplxblur=20.0 / qblur=0.5 / ip_ratio=1.40 / aq=1:1.00
Default : Да
Forced : Нет

Аудио
Идентификатор : 2
Формат : AC-3
Формат/Информация : Audio Coding 3
Расширение режима : CM (complete main)
Идентификатор кодека : A_AC3
Продолжительность : 42 м.
Вид битрейта : Постоянный
Битрейт : 128 Кбит/сек
Каналы : 2 канала
Расположение каналов : Front: L R
Частота : 48,0 КГц
Битовая глубина : 16 бит
Метод сжатия : С потерями
Размер потока : 39,2 Мбайт (7%)
Заголовок : kitaj
Язык : Russian
Default : Да
Forced : Да


Эпизод №1 - Китай.Ушу-саньда ▼Дата выхода в эфир: 2007
Перевод: Профессиональный (одноголосый, закадровый)
Участники: Дугласс Андерсон, Джимми Смит, Риксон Грейси, Royler Gracie, Мастера: Ши Де Ян, Ши Де Ченг

Описание: Джимми и Даг едут в Китай, в легендарные горы Суншань, чтобы изучить основу основ боевое искусство кунфу. Их тренируют два мастера из 31-го поколения шаолиньских боевых монахов. Джимми и Даг постигают, что в
8e1e0b56104623011cf1b02af2924c484694e33b[Discovery] Тайны боевых искусств / Fight Quest // Сезон 1, Эпизод 1 по 4 (из 4) (документальный, спорт, 2007) [BDRip-AVC, Профессиональный (одноголосый, закадровый)] [Discovery] Тайны боевых искусств / Fight Quest // Сезон 1, Эпизод 1 по 4 (из 4) (документальный, спорт, 2007) [BDRip-AVC, Профессиональный (одноголосый, закадровый)] " />

Аплоадер: Админ, дата: 12-08-2013, 11:28, торрент скачан: 359 раз

Понравилась раздача? Посмотрите эти:
  • [NG] Комета века / Comet of the century (документальный, 2013) [HDTVRip-AVC ...
  • 11.6 / 11.6 (Филипп Годо, Драма, триллер, криминал, 2013) [BDRip-AVC, Профе ...
  • [NG] Тайная жизнь хищников / Secret Life of Predators // Эпизод 1 по 4 (из ...
  • [BBC] Как устроена природа / BBC. How Nature Works // Эпизод 1 по 4 (из 4) ...
  • Филадельфия / Philadelphia (Джонатан Демме, Драма, 1993) [BDRip-AVC, Профес ...
  • Башня / The Tower (Чи-хун Ким, драма, 2012) [BDRip-AVC, Любительский (двухг ...
  • Больше чем мёд / More Than Honey (документальный, 2012) [BDRip 720p, Профес ...
  • Обман Обамы / The Obama Deception: The Mask Comes Off (Документальный, 2009 ...
  • [NG] Медоеды: Змеиные убийцы / Honey Badgers of the Kalahari. Snake Killers ...
  • [BBC] BBC: Безжалостные убийцы / BBC: Ultimate Killers // Выпуск 1 по 3 (из ...
  • Рикошет / Ricochet (Ник Гомез, драма, детектив, 2011) [BDRip-AVC, Профессио ...
  • [BBC] BBC: Змеи / Wildlife Special. Serpent (Документальный, 2003) [DVDRip- ...
  • [NG] На крючке: Ловля монстров. Гигантский скат / Monster Fish. Giant Sting ...
  • [NG] Война львов / Lion Battle Zone (документальный, 2011) [HDTVRip-AVC, Пр ...
  • Новые технологии войны / The New Technology of War [Часть 1] (документальны ...
  • Новые технологии войны / The New Technology of War [Часть 2] (документальны ...
  • АББА: фильм / ABBA: The Movie (документальный, драма, музыка, 1977) [BDRip- ...
  • Дикий запад. Кино и реальность / The Wild And The West (документальный, 200 ...
  • Огонь Кристиана Лубутена 3D / FEU: Crazy Horse Paris (Бруно Халлин, Докумен ...
  • Ангелы Чарли / Charlies Angels (МакДжи, Боевик, триллер, комедия, криминал, ...
  • Неуязвимая мишень / Naam yi boon sik (Бенни Чан, Боевик, криминал, 2007) [B ...
  • Суррогат / The Sessions (Бен Луин, Драма, 2012) [BDRip-AVC, Профессиональны ...
  • Чемпионат Англии 2012-2013 / 25-й тур / Обзор / Суббота / BBC Sport [2013 г ...
  • Лоракс: Серенада / The Lorax: Serenade (Кайл Балда, мультфильм, комедия, му ...
  • [NG] Гитлеровские лагеря смерти / Hitlers G.I. Death Camp (документальный, ...
  • Информация
    Посетители, находящиеся в группе Гости, не могут оставлять комментарии к данной публикации.