вход на сайт

Имя пользователя :
Пароль :

Восстановление пароля Регистрация
[BBC] BBC: Змеи / Wildlife Special. Serpent (Документальный, 2003) [DVDRip-AVC, Пррфессиональный (одноголосый, закадровый)]
Рейтинг:
(голосов: 1)



[img]{THEME}/images/logopost.png[/img]



BBC: Змеи / Wildlife Special. Serpent


Страна: Великобритания
Производство: A BBC / Discovery Channel Prodoction
Год выпуска: 2003
Жанр: Документальный
Режиссёр: Майк Бинон
Ведущие: David Attenborough
Участники: Змеи...

Перевод: Профессиональный (одноголосый, закадровый)

Описание
Змеи - одни из самых своеобразных существ на земле. Их необычный внешний вид, оригинальный способ движения, многие замечательные особенности поведения, ядовитость многих видов, наконец, - все это издавна привлекает внимание и вызывает живой интерес у людей. У самых различных народов земного шара сложено множество легенд, сказок и мифов о змеях. Но подчас многие "правдивые" рассказы о змеях бывают гораздо фантастичнее любых мифов.



Тех.Данные
Качество: DVDRip-AVC
Продолжительность: 00:48:57 часа

Формат: Matroska-MKV-
Видео кодек: AVC [email protected]
Аудио кодек: Audio Coding 3
Свойства видео: 768x576 (4:3), 25 fps, AVC [email protected] ~1700 kbps avg, 0.154 bit/pixel
Свойства аудио: 48 kHz, AC3 Dolby Digital, 2/0 (L,R) ch, ~224 kbps avg

Информация MediaInfo ▼TextОбщее
Уникальный идентификатор : 190128049604420002600964145588234063314 (0x8F0954951A0091A09E06C82FB6138DD2)
Полное имя : E:DownloadsBBC. Змеи.2003.DVDRip-AVC.mkv
Формат : Matroska
Версия формата : Version 2
Размер файла : 674 Мбайт
Продолжительность : 48 м.
Общий поток : 1926 Кбит/сек
Дата кодирования : UTC 2013-07-16 21:08:49
Программа кодирования : mkvmerge v6.1.0 (Old Devil) built on Mar 4 2013 09:10:42
Библиотека кодирования : libebml v1.3.0 + libmatroska v1.4.0

Видео
Идентификатор : 1
Формат : AVC
Формат/Информация : Advanced Video Codec
Профиль формата : [email protected]
Параметр CABAC формата : Да
Параметр ReFrames формата : 5 кадров
Идентификатор кодека : V_MPEG4/ISO/AVC
Продолжительность : 48 м.
Битрейт : 1700 Кбит/сек
Ширина : 768 пикселей
Высота : 576 пикселей
Соотношение сторон : 4:3
Частота кадров : 25,000 кадров/сек
Цветовое пространство : YUV
Субдискретизация насыщенности : 4:2:0
Битовая глубина : 8 бит
Тип развёртки : Прогрессивная
Бит/(Пиксели*Кадры) : 0.154
Размер потока : 582 Мбайт (86%)
Библиотека кодирования : x264 core 130 r2273 b3065e6
Настройки программы : cabac=1 / ref=5 / deblock=1:-2:-2 / analyse=0x3:0x111 / me=umh / subme=9 / psy=1 / psy_rd=0.00:0.10 / mixed_ref=1 / me_range=32 / chroma_me=1 / trellis=2 / 8x8dct=1 / cqm=0 / deadzone=21,11 / fast_pskip=0 / chroma_qp_offset=-1 / threads=6 / lookahead_threads=1 / sliced_threads=0 / nr=0 / decimate=1 / interlaced=0 / bluray_compat=0 / constrained_intra=0 / bframes=5 / b_pyramid=2 / b_adapt=0 / b_bias=0 / direct=1 / weightb=1 / open_gop=0 / weightp=2 / keyint=250 / keyint_min=25 / scenecut=40 / intra_refresh=0 / rc_lookahead=50 / rc=2pass / mbtree=1 / bitrate=1700 / ratetol=1.0 / qcomp=0.60 / qpmin=0 / qpmax=69 / qpstep=4 / cplxblur=20.0 / qblur=0.5 / ip_ratio=1.40 / aq=1:1.00
Default : Да
Forced : Нет

Аудио
Идентификатор : 2
Формат : AC-3
Формат/Информация : Audio Coding 3
Расширение режима : CM (complete main)
Идентификатор кодека : A_AC3
Продолжительность : 48 м.
Вид битрейта : Постоянный
Битрейт : 224 Кбит/сек
Каналы : 2 канала
Расположение каналов : Front: L R
Частота : 48,0 КГц
Битовая глубина : 16 бит
Метод сжатия : С потерями
Размер потока : 78,4 Мбайт (12%)
Default : Да
Forced : Нет

Доп.Скриншоты ▼




baebfe5fec97233ac6b957026ee297075ce89094[BBC] BBC: Змеи / Wildlife Special. Serpent (Документальный, 2003) [DVDRip-AVC, Пррфессиональный (одноголосый, закадровый)] [BBC] BBC: Змеи / Wildlife Special. Serpent (Документальный, 2003) [DVDRip-AVC, Пррфессиональный (одноголосый, закадровый)] " />

Аплоадер: Админ, дата: 28-07-2013, 11:31, торрент скачан: 359 раз

Понравилась раздача? Посмотрите эти:
  • [NG] Комета века / Comet of the century (документальный, 2013) [HDTVRip-AVC ...
  • Мэрайа Мунди и шкатулка Мидаса / The Adventurer: The Curse of the Midas Box ...
  • [BBC] Как устроена природа / BBC. How Nature Works // Эпизод 1 по 4 (из 4) ...
  • Усатый нянь (Владимир Грамматиков, комедия, семейный, 1977) [DVDRip-AVC, Не ...
  • Марафон (Карен Оганесян, комедия, 2013) [DVDRip-AVC, Не требуется]
  • Башня / The Tower (Чи-хун Ким, драма, 2012) [BDRip-AVC, Любительский (двухг ...
  • Обман Обамы / The Obama Deception: The Mask Comes Off (Документальный, 2009 ...
  • Великая Отечественная Война, Восточный фронт / World War II, The Eastern fr ...
  • [NG] Медоеды: Змеиные убийцы / Honey Badgers of the Kalahari. Snake Killers ...
  • [BBC] BBC: Безжалостные убийцы / BBC: Ultimate Killers // Выпуск 1 по 3 (из ...
  • Дикая Южная Африка. По Следам Белых Акул / Wildlife South Africa: Western C ...
  • [NG] На крючке: Ловля монстров. Гигантский скат / Monster Fish. Giant Sting ...
  • [NG] Война львов / Lion Battle Zone (документальный, 2011) [HDTVRip-AVC, Пр ...
  • Новые технологии войны / The New Technology of War [Часть 1] (документальны ...
  • Новые технологии войны / The New Technology of War [Часть 2] (документальны ...
  • Дикий запад. Кино и реальность / The Wild And The West (документальный, 200 ...
  • Огонь Кристиана Лубутена 3D / FEU: Crazy Horse Paris (Бруно Халлин, Докумен ...
  • Чемпионат Англии 2012-2013 / 25-й тур / Обзор / Суббота / BBC Sport [2013 г ...
  • Лоракс: Серенада / The Lorax: Serenade (Кайл Балда, мультфильм, комедия, му ...
  • [NG] Гитлеровские лагеря смерти / Hitlers G.I. Death Camp (документальный, ...
  • Информация
    Посетители, находящиеся в группе Гости, не могут оставлять комментарии к данной публикации.