вход на сайт

Имя пользователя :
Пароль :

Восстановление пароля Регистрация
[BBC] BBC: Безжалостные убийцы / BBC: Ultimate Killers // Выпуск 1 по 3 (из 3) (Документальный, 2001) [DVDRip-AVC, Профессиональный (одноголосый, закадровый)]
Рейтинг:
(голосов: 1)



[img]{THEME}/images/logopost.png[/img]



BBC: Безжалостные убийцы / BBC: Ultimate Killers

Страна: Великобритания
Производство: BBC Worldwide
Год выпуска: 2001
Жанр: Документальный

Режиссёр: Стив Леонардс
Ведущие: отсутствует
Участники: Ученые, Иследователи, Животный Мир...

Перевод: Профессиональный (одноголосый, закадровый)
Субтитры: Отсутствуют

Описание: Шокирующие истории о самых смертоносных созданиях на Земле. В программе описываются реальные случаи нападения этих животных на людей. Вы увидите самых быстрых, самых сильных и самых ядовитых существ на планете, а также эксклюзивные интервью с пострадавшими от их нападений и чудом оставшимися о живых людьми. Во некоторым из этих историй можно снимать фильмы ужасов. Убедитесь в этом сами!

Качество: DVDRip-AVC
Формат: Matroska-MKV-
Продолжительность: 3x ~ 00:50:00 часа - Средняя продолжительность для одного эпизода

Выпуск №1 ▼Дата выхода в эфир: 2001
Перевод: Профессиональный (одноголосый, закадровый)
Участники: Ученые, Иследователи, Животный Мир...

Формат: Matroska-MKV-
Видео кодек: AVC [email protected]
Аудио кодек: AC3
Свойства видео: 1024x576 (16:9), 25 fps, AVC ~1700 kbps avg, 0.115 bit/pixel
Свойства аудио: 48 kHz, AC3 Dolby Digital, 2/0 (L,R) ch, ~192 kbps

Информация MediaInfo ▼TextОбщее
Уникальный идентификатор : 242368302634938008609623735136875556228 (0xB6566FE9D0CD9D089A005EBB8749AD84)
Полное имя : E:DownloadsБезжалостные убийцы.2001.DVDRip-AVC1.Безжалостные убийцы (выпуск №1).2001.DVDRip-AVC.mkv
Формат : Matroska
Версия формата : Version 2
Размер файла : 679 Мбайт
Продолжительность : 50 м.
Общий поток : 1894 Кбит/сек
Дата кодирования : UTC 2013-07-15 05:34:29
Программа кодирования : mkvmerge v6.1.0 (Old Devil) built on Mar 4 2013 09:10:42
Библиотека кодирования : libebml v1.3.0 + libmatroska v1.4.0

Видео
Идентификатор : 1
Формат : AVC
Формат/Информация : Advanced Video Codec
Профиль формата : [email protected]
Параметр CABAC формата : Да
Параметр ReFrames формата : 5 кадров
Идентификатор кодека : V_MPEG4/ISO/AVC
Продолжительность : 50 м.
Битрейт : 1700 Кбит/сек
Ширина : 1024 пикселя
Высота : 576 пикселей
Соотношение сторон : 16:9
Частота кадров : 25,000 кадров/сек
Цветовое пространство : YUV
Субдискретизация насыщенности : 4:2:0
Битовая глубина : 8 бит
Тип развёртки : Прогрессивная
Бит/(Пиксели*Кадры) : 0.115
Размер потока : 597 Мбайт (88%)
Библиотека кодирования : x264 core 130 r2273 b3065e6
Настройки программы : cabac=1 / ref=5 / deblock=1:-2:-2 / analyse=0x3:0x111 / me=umh / subme=9 / psy=1 / psy_rd=0.00:0.10 / mixed_ref=1 / me_range=32 / chroma_me=1 / trellis=2 / 8x8dct=1 / cqm=0 / deadzone=21,11 / fast_pskip=0 / chroma_qp_offset=-1 / threads=6 / lookahead_threads=1 / sliced_threads=0 / nr=0 / decimate=1 / interlaced=0 / bluray_compat=0 / constrained_intra=0 / bframes=5 / b_pyramid=2 / b_adapt=0 / b_bias=0 / direct=1 / weightb=1 / open_gop=0 / weightp=2 / keyint=250 / keyint_min=25 / scenecut=40 / intra_refresh=0 / rc_lookahead=50 / rc=2pass / mbtree=1 / bitrate=1700 / ratetol=1.0 / qcomp=0.60 / qpmin=0 / qpmax=69 / qpstep=4 / cplxblur=20.0 / qblur=0.5 / ip_ratio=1.40 / aq=1:1.00
Default : Да
Forced : Нет

Аудио
Идентификатор : 2
Формат : AC-3
Формат/Информация : Audio Coding 3
Расширение режима : CM (complete main)
Идентификатор кодека : A_AC3
Продолжительность : 50 м.
Вид битрейта : Постоянный
Битрейт : 192 Кбит/сек
Каналы : 2 канала
Расположение каналов : Front: L R
Частота : 48,0 КГц
Битовая глубина : 16 бит
Метод сжатия : С потерями
Размер потока : 68,8 Мбайт (10%)
Default : Да
Forced : Нет

"Скриншот" ▼





Выпуск №2 ▼Дата выхода в эфир: 2001
Перевод: Профессиональный (одноголосый, закадровый)
Участники: Ученые, Иследователи, Животный Мир...

Формат: Matroska-MKV-
Видео
eb9352d90a86f3581211260e4f5e63a0f258a485[BBC] BBC: Безжалостные убийцы / BBC: Ultimate Killers // Выпуск 1 по 3 (из 3) (Документальный, 2001) [DVDRip-AVC, Профессиональный (одноголосый, закадровый)] [BBC] BBC: Безжалостные убийцы / BBC: Ultimate Killers // Выпуск 1 по 3 (из 3) (Документальный, 2001) [DVDRip-AVC, Профессиональный (одноголосый, закадровый)] " />

Аплоадер: Админ, дата: 22-07-2013, 11:58, торрент скачан: 359 раз

Понравилась раздача? Посмотрите эти:
  • [NG] Комета века / Comet of the century (документальный, 2013) [HDTVRip-AVC ...
  • Мэрайа Мунди и шкатулка Мидаса / The Adventurer: The Curse of the Midas Box ...
  • [NG] Тайная жизнь хищников / Secret Life of Predators // Эпизод 1 по 4 (из ...
  • [BBC] Как устроена природа / BBC. How Nature Works // Эпизод 1 по 4 (из 4) ...
  • [BBC] Жизнь с холодной кровью / Life in Cold Blood // Сезон 1, Эпизод 1 по ...
  • Вооруженные силы. Боевые машины: Шерман атакует / Battle Stations: Sherman ...
  • Башня / The Tower (Чи-хун Ким, драма, 2012) [BDRip-AVC, Любительский (двухг ...
  • Обман Обамы / The Obama Deception: The Mask Comes Off (Документальный, 2009 ...
  • Фальшивомонетчики. Гении и злодеи. (Документальный, 2004) [DVDRip-AVC, не т ...
  • Великая Отечественная Война, Восточный фронт / World War II, The Eastern fr ...
  • [NG] Медоеды: Змеиные убийцы / Honey Badgers of the Kalahari. Snake Killers ...
  • [BBC] BBC: Змеи / Wildlife Special. Serpent (Документальный, 2003) [DVDRip- ...
  • Дикая Южная Африка. По Следам Белых Акул / Wildlife South Africa: Western C ...
  • [Discovery] Тайны боевых искусств / Fight Quest // Сезон 1, Эпизод 1 по 4 ( ...
  • [NG] На крючке: Ловля монстров. Гигантский скат / Monster Fish. Giant Sting ...
  • [NG] Война львов / Lion Battle Zone (документальный, 2011) [HDTVRip-AVC, Пр ...
  • Убийцы / Yi ngoi (Поу-Сои Чинг, Триллер, 2009) [BDRip-AVC, Авторский (одног ...
  • Новые технологии войны / The New Technology of War [Часть 1] (документальны ...
  • Новые технологии войны / The New Technology of War [Часть 2] (документальны ...
  • Дикий запад. Кино и реальность / The Wild And The West (документальный, 200 ...
  • Суррогат / The Sessions (Бен Луин, Драма, 2012) [BDRip-AVC, Профессиональны ...
  • Чемпионат Англии 2012-2013 / 25-й тур / Обзор / Суббота / BBC Sport [2013 г ...
  • Наёмные убийцы / Contract Killers (Джастин Б. Родс, Боевик, 2009) [HDRip-AV ...
  • [NG] Гитлеровские лагеря смерти / Hitlers G.I. Death Camp (документальный, ...
  • Порно звезда. Предание о Роне Джереми / Porn star. The Legend of Ron Jeremy ...
  • Информация
    Посетители, находящиеся в группе Гости, не могут оставлять комментарии к данной публикации.