вход на сайт

Имя пользователя :
Пароль :

Восстановление пароля Регистрация
[BBC] Как устроена природа / BBC. How Nature Works // Эпизод 1 по 4 (из 4) (Документальный, природа, животные, флора, фауна , 2012) [HDTVRip-AVC , Профессиональный (одноголосый, закадровый)]
Рейтинг:
(голосов: 1)



[img]{THEME}/images/logopost.png[/img]



Как устроена природа / BBC. How Nature Works

Страна: Великобритания
Производство: BBC Earth
Год выпуска: 2012
Жанр: Документальный, природа, животные, флора, фауна
Режиссёр: Тим Мартин
Ведущие: отсутствует
Участники: Животный Мир...

Перевод: Профессиональный (одноголосый, закадровый)

Описание: На планете Земля обитает более десяти миллионов биологических видов. Но в одиночку им выжить не удастся. Все в жизни взаимосвязано. 4-х серийный документальный фильм от канала BBC продемонстрирует нам удивительный мир, который скрыт от наших глаз, и Вы станете свидетелем неожиданных отношений, которые соединяют миллионы растений и животных.

Качество: HDTVRip-AVC
Формат: Matroska-MKV-
Продолжительность: 4 x ~ 00:42:00 часа - Средняя продолжительность для одного эпизода

Эпизод №1 - Пастбище / Grassland ▼Дата выхода в эфир: 2012
Перевод: Профессиональный (одноголосый, закадровый)
Участники: Животный Мир...

Описание: В этой серии мы расскажем о пастбищах, на которых жизнь обезьяны зависит от жирафа, а необычные взаимоотношения позволяют удивительным животным благоденствовать вопреки всему.

Формат: MKV
Видео кодек: AVC [email protected]
Аудио кодек: Audio Coding 3
Свойства видео: 1024x576 (16:9), 25 fps, AVC ~1800 kbps avg, 0.122 bit/pixel
Свойства аудио: 48 kHz, AC3 Dolby Digital, 2/0 (L,R) ch, ~192 kbps

"Скриншот" ▼ Информация MediaInfo ▼TextОбщее
Уникальный идентификатор : 227945438531019526838240167632255398105 (0xAB7CB1CFB0753FC28CFFB9B1703930D9)
Полное имя : E:DownloadsBBC.Как устроена природа.2012.HDTVRip-AVC1.Пастбище.2012.HDTVRip-AVC.mkv
Формат : Matroska
Версия формата : Version 2
Размер файла : 612 Мбайт
Продолжительность : 42 м.
Общий поток : 1993 Кбит/сек
Дата кодирования : UTC 2013-09-16 22:20:19
Программа кодирования : mkvmerge v6.1.0 (Old Devil) built on Mar 4 2013 09:10:42
Библиотека кодирования : libebml v1.3.0 + libmatroska v1.4.0

Видео
Идентификатор : 1
Формат : AVC
Формат/Информация : Advanced Video Codec
Профиль формата : [email protected]
Параметр CABAC формата : Да
Параметр ReFrames формата : 5 кадров
Идентификатор кодека : V_MPEG4/ISO/AVC
Продолжительность : 42 м.
Битрейт : 1800 Кбит/сек
Ширина : 1024 пикселя
Высота : 576 пикселей
Соотношение сторон : 16:9
Частота кадров : 25,000 кадров/сек
Цветовое пространство : YUV
Субдискретизация насыщенности : 4:2:0
Битовая глубина : 8 бит
Тип развёртки : Прогрессивная
Бит/(Пиксели*Кадры) : 0.122
Размер потока : 541 Мбайт (88%)
Библиотека кодирования : x264 core 130 r2273 b3065e6
Настройки программы : cabac=1 / ref=5 / deblock=1:-2:-2 / analyse=0x3:0x111 / me=umh / subme=9 / psy=1 / psy_rd=0.00:0.10 / mixed_ref=1 / me_range=32 / chroma_me=1 / trellis=2 / 8x8dct=1 / cqm=0 / deadzone=21,11 / fast_pskip=0 / chroma_qp_offset=-1 / threads=6 / lookahead_threads=1 / sliced_threads=0 / nr=0 / decimate=1 / interlaced=0 / bluray_compat=0 / constrained_intra=0 / bframes=5 / b_pyramid=2 / b_adapt=0 / b_bias=0 / direct=1 / weightb=1 / open_gop=0 / weightp=2 / keyint=250 / keyint_min=25 / scenecut=40 / intra_refresh=0 / rc_lookahead=50 / rc=2pass / mbtree=1 / bitrate=1800 / ratetol=1.0 / qcomp=0.60 / qpmin=0 / qpmax=69 / qpstep=4 / cplxblur=20.0 / qblur=0.5 / ip_ratio=1.40 / aq=1:1.00
Default : Да
Forced : Нет

Аудио
Идентификатор : 2
Формат : AC-3
Формат/Информация : Audio Coding 3
Расширение режима : CM (complete main)
Идентификатор кодека : A_AC3
Продолжительность : 42 м.
Вид битрейта : Постоянный
Битрейт : 192 Кбит/сек
Каналы : 2 канала
Расположение каналов : Front: L R
Частота : 48,0 КГц
Битовая глубина : 16 бит
Метод сжатия : С потерями
Размер потока : 59,0 Мбайт (10%)
Default : Да
Forced : Нет

Эпизод №2 - Джунгли / Jungle ▼Дата выхода в эфир: 2012
Перевод: Профессиональный (одноголосый, закадровый)
Участники: Животный Мир...

Описание: В этой серии мы расскажем о джунглях, где жизнь гигантско
3d9a66b69d516b125d3984260af85734998b5499[BBC] Как устроена природа / BBC. How Nature Works // Эпизод 1 по 4 (из 4) (Документальный, природа, животные, флора, фауна , 2012) [HDTVRip-AVC , Профессиональный (одноголосый, закадровый)] [BBC] Как устроена природа / BBC. How Nature Works // Эпизод 1 по 4 (из 4) (Документальный, природа, животные, флора, фауна , 2012) [HDTVRip-AVC , Профессиональный (одноголосый, закадровый)] " />

Аплоадер: Админ, дата: 26-09-2013, 12:15, торрент скачан: 359 раз

Понравилась раздача? Посмотрите эти:
  • [NG] Комета века / Comet of the century (документальный, 2013) [HDTVRip-AVC ...
  • [NG] Тайная жизнь хищников / Secret Life of Predators // Эпизод 1 по 4 (из ...
  • 1993. Осень в огне (документальный, 2013) [HDTVRip-AVC, не требуется]
  • [BBC] Жизнь с холодной кровью / Life in Cold Blood // Сезон 1, Эпизод 1 по ...
  • Вооруженные силы. Боевые машины: Шерман атакует / Battle Stations: Sherman ...
  • [NG] Убийственная скорость / Speed Kills // Эпизод 1 по 3 (из 3) (Документа ...
  • Обман Обамы / The Obama Deception: The Mask Comes Off (Документальный, 2009 ...
  • Голливудский мусор / Garbage (Филипп Волкен, драма, комедия, 2013) [HDTVRip ...
  • Великая Отечественная Война, Восточный фронт / World War II, The Eastern fr ...
  • [NG] Медоеды: Змеиные убийцы / Honey Badgers of the Kalahari. Snake Killers ...
  • [BBC] BBC: Безжалостные убийцы / BBC: Ultimate Killers // Выпуск 1 по 3 (из ...
  • [BBC] BBC: Змеи / Wildlife Special. Serpent (Документальный, 2003) [DVDRip- ...
  • Дикая Южная Африка. По Следам Белых Акул / Wildlife South Africa: Western C ...
  • [Discovery] Тайны боевых искусств / Fight Quest // Сезон 1, Эпизод 1 по 4 ( ...
  • [NG] На крючке: Ловля монстров. Гигантский скат / Monster Fish. Giant Sting ...
  • [NG] Война львов / Lion Battle Zone (документальный, 2011) [HDTVRip-AVC, Пр ...
  • Новые технологии войны / The New Technology of War [Часть 1] (документальны ...
  • Новые технологии войны / The New Technology of War [Часть 2] (документальны ...
  • Дикий запад. Кино и реальность / The Wild And The West (документальный, 200 ...
  • Огонь Кристиана Лубутена 3D / FEU: Crazy Horse Paris (Бруно Халлин, Докумен ...
  • Радужная природа / Rainbow Nature (Документальный, флора, фауна, 2008) [HDT ...
  • Суррогат / The Sessions (Бен Луин, Драма, 2012) [BDRip-AVC, Профессиональны ...
  • Чемпионат Англии 2012-2013 / 25-й тур / Обзор / Суббота / BBC Sport [2013 г ...
  • [NG] Гитлеровские лагеря смерти / Hitlers G.I. Death Camp (документальный, ...
  • Чемпионат Англии 2012-2013 / 19-й тур / Обзор / Среда / BBC Sport [2012 г., ...
  • Информация
    Посетители, находящиеся в группе Гости, не могут оставлять комментарии к данной публикации.