вход на сайт

Имя пользователя :
Пароль :

Восстановление пароля Регистрация
[NG] Тайная жизнь хищников / Secret Life of Predators // Эпизод 1 по 4 (из 4) (документальный, 2013) [HDTVRip-AVC, Порфессиональный (одноголосый, закадровый)]
Рейтинг:
(голосов: 1)



[img]{THEME}/images/logopost.png[/img]



Тайная жизнь хищников / Secret Life of Predators

Страна: США
Производство: National Geographic Television
Год выпуска: 2013
Жанр: документальный
Режиссёр: Джаред Липворт
Ведущие: отсутствует
Участники: Животный Мир...

Перевод: Профессиональный (одноголосый, закадровый)

Описание: Это сенсационное погружение в среду самых страшных хищников планеты раскрывается через невероятную съемку и самые современные технологии кинопроизводства ... некоторые приемы съемки были изобретены специально для этого новаторского телепроекта.

Качество: HDTVRip-AVC
Формат: MKV
Продолжительность: 4 x ~ 00:43:43 часа - Средняя продолжительность для одного эпизода

Эпизод №1 - На виду ▼Дата выхода в эфир: 2013
Перевод: Порфессиональный (одноголосый, закадровый)
Участники: Животный Мир...

Описание: Хищники, обитающие на открытых пространствах, должны уметь прятаться будучи у всех на виду или же, как полосатый мангуст, брать числом.

Формат: MKV
Видео кодек: AVC
Аудио кодек: Audio Coding 3
Свойства видео: 1024x576 (16:9), 25 fps, AVC ~1850 kbps avg, 0.125 bit/pixel
Свойства аудио: 48 kHz, AC3 Dolby Digital, 2/0 (L,R) ch, ~256 kbps

"Скриншот" ▼

▼TextОбщее
Уникальный идентификатор : 221371303244237034901774968723465579914 (0xA68A8FEAACDE087A8580232153682D8A)
Полное имя : E:DownloadsТайная жизнь хищников.2013.Эпизод 1 по 4 (из 4).HDTVRip-AVC1.Тайная жизнь хищников. На виду.2013.HDTVRip-AVC.mkv
Формат : Matroska
Версия формата : Version 2
Размер файла : 663 Мбайт
Продолжительность : 43 м.
Общий поток : 2107 Кбит/сек
Название фильма : Release for MediaClub by AlexAndr92
Дата кодирования : UTC 2013-11-02 23:10:09
Программа кодирования : mkvmerge v5.8.0 (No Sleep / Pillow) built on Sep 2 2012 15:37:04
Библиотека кодирования : libebml v1.2.3 + libmatroska v1.3.0

Видео
Идентификатор : 1
Формат : AVC
Формат/Информация : Advanced Video Codec
Профиль формата : [email protected]
Параметр CABAC формата : Да
Параметр ReFrames формата : 4 кадра
Идентификатор кодека : V_MPEG4/ISO/AVC
Продолжительность : 43 м.
Битрейт : 1850 Кбит/сек
Ширина : 1024 пикселя
Высота : 576 пикселей
Соотношение сторон : 16:9
Частота кадров : 25,000 кадров/сек
Цветовое пространство : YUV
Субдискретизация насыщенности : 4:2:0
Битовая глубина : 8 бит
Тип развёртки : Прогрессивная
Бит/(Пиксели*Кадры) : 0.125
Размер потока : 569 Мбайт (86%)
Библиотека кодирования : x264 core 125 r2208 d9d2288
Настройки программы : cabac=1 / ref=3 / deblock=1:-1:-1 / analyse=0x3:0x131 / me=umh / subme=9 / psy=1 / psy_rd=1.00:0.15 / mixed_ref=1 / me_range=32 / chroma_me=1 / trellis=2 / 8x8dct=1 / cqm=0 / deadzone=21,11 / fast_pskip=0 / chroma_qp_offset=-3 / threads=12 / lookahead_threads=2 / sliced_threads=0 / nr=0 / decimate=1 / interlaced=0 / bluray_compat=0 / constrained_intra=0 / bframes=3 / b_pyramid=2 / b_adapt=0 / b_bias=0 / direct=1 / weightb=1 / open_gop=0 / weightp=2 / keyint=250 / keyint_min=25 / scenecut=40 / intra_refresh=0 / rc_lookahead=50 / rc=2pass / mbtree=1 / bitrate=1850 / ratetol=1.0 / qcomp=0.60 / qpmin=0 / qpmax=69 / qpstep=4 / cplxblur=20.0 / qblur=0.5 / ip_ratio=1.40 / aq=1:1.00
Default : Да
Forced : Нет

Аудио
Идентификатор : 2
Формат : AC-3
Формат/Информация : Audio Coding 3
Расширение режима : CM (complete main)
Идентификатор кодека : A_AC3
Продолжительность : 43 м.
Вид битрейта : Постоянный
Битрейт : 256 Кбит/сек
Каналы : 2 канала
Расположение каналов : Front: L R
Частота : 48,0 КГц
Битовая глубина : 16 бит
Метод сжатия : С потерями
Размер потока : 80,5 Мбайт (12%)
Default : Нет
Forced : Нет

Эпизод №2 - В воде ▼Дата выхода в эфир: 2013
Перевод: Порфессиональный (одноголосый, закадровый)
Участники: Животный Мир...

Описание: В водах нашей планеты хищники всех форм и размеров встречают множество преград на пути к успеху и выживанию.

Формат: MKV
Видео кодек: AVC
Аудио кодек: Audio Codin
2a1c7080a34c25be7c5f2f8b66139238e52eac78[NG] Тайная жизнь хищников / Secret Life of Predators // Эпизод 1 по 4 (из 4) (документальный, 2013) [HDTVRip-AVC, Порфессиональный (одноголосый, закадровый)] [NG] Тайная жизнь хищников / Secret Life of Predators // Эпизод 1 по 4 (из 4) (документальный, 2013) [HDTVRip-AVC, Порфессиональный (одноголосый, закадровый)] " />

Аплоадер: Админ, дата: 4-11-2013, 12:53, торрент скачан: 359 раз

Понравилась раздача? Посмотрите эти:
  • [NG] Комета века / Comet of the century (документальный, 2013) [HDTVRip-AVC ...
  • [BBC] Как устроена природа / BBC. How Nature Works // Эпизод 1 по 4 (из 4) ...
  • Мальчишник: Часть III / The Hangover Part III (Тодд Филлипс, комедия, 2013) ...
  • Главный бой Мухаммеда Али / Muhammad Alis Greatest Fight (Стивен Фрирз, дра ...
  • [BBC] Жизнь с холодной кровью / Life in Cold Blood // Сезон 1, Эпизод 1 по ...
  • Обман Обамы / The Obama Deception: The Mask Comes Off (Документальный, 2009 ...
  • Голливудский мусор / Garbage (Филипп Волкен, драма, комедия, 2013) [HDTVRip ...
  • [NG] Медоеды: Змеиные убийцы / Honey Badgers of the Kalahari. Snake Killers ...
  • [BBC] BBC: Безжалостные убийцы / BBC: Ultimate Killers // Выпуск 1 по 3 (из ...
  • Рикошет / Ricochet (Ник Гомез, драма, детектив, 2011) [BDRip-AVC, Профессио ...
  • [BBC] BBC: Змеи / Wildlife Special. Serpent (Документальный, 2003) [DVDRip- ...
  • Дикая Южная Африка. По Следам Белых Акул / Wildlife South Africa: Western C ...
  • [Discovery] Тайны боевых искусств / Fight Quest // Сезон 1, Эпизод 1 по 4 ( ...
  • [NG] На крючке: Ловля монстров. Гигантский скат / Monster Fish. Giant Sting ...
  • [NG] Война львов / Lion Battle Zone (документальный, 2011) [HDTVRip-AVC, Пр ...
  • Новые технологии войны / The New Technology of War [Часть 1] (документальны ...
  • Новые технологии войны / The New Technology of War [Часть 2] (документальны ...
  • Дикий запад. Кино и реальность / The Wild And The West (документальный, 200 ...
  • Кошмары на стоянке трейлеров / Trailer Park of Terror (Стивен Голдманн, ужа ...
  • Суррогат / The Sessions (Бен Луин, Драма, 2012) [BDRip-AVC, Профессиональны ...
  • Чемпионат Англии 2012-2013 / 25-й тур / Обзор / Суббота / BBC Sport [2013 г ...
  • Чемпионат Англии 2012-2013 / 25-й тур / Обзор / Воскресенье / BBC Sport [20 ...
  • Лоракс: Серенада / The Lorax: Serenade (Кайл Балда, мультфильм, комедия, му ...
  • [NG] Гитлеровские лагеря смерти / Hitlers G.I. Death Camp (документальный, ...
  • Чемпионат Англии 2012-2013 / 19-й тур / Обзор / Среда / BBC Sport [2012 г., ...
  • Информация
    Посетители, находящиеся в группе Гости, не могут оставлять комментарии к данной публикации.