вход на сайт

Имя пользователя :
Пароль :

Восстановление пароля Регистрация
[NG] Комета века / Comet of the century (документальный, 2013) [HDTVRip-AVC, Профессиональный (одноголосый, закадровый)]
Рейтинг:
(голосов: 1)



[img]{THEME}/images/logopost.png[/img]



Комета века / Comet of the century


Страна: США
Производство: National Geographic Channel
Год выпуска: 2013
Жанр: документальный
Режиссёр: Дункан Копп
Ведущие: отсутствует
Участники: Karll Battams, Francisco Diego, Gareth Williams, Carey Lisse, Amy Mainzer, Lewis Dartnell

Перевод: Профессиональный (одноголосый, закадровый)

Описание: Прямо сейчас в сторону солнца летит глыба изо льда и камня, размером с город. Это комета "Айсон". Астрономы по всему миру следят за ней. Она становится все ярче. Декабрь решит все.


Тех.Данные:
Качество: HDTVRip-AVC
Продолжительность: ~ 00:43:55 часа

Формат: Matroska-MKV-
Видео кодек: Advanced Video Codec-AVC-
Аудио кодек: Audio Coding 3
Свойства видео: 1024x576 (16:9), 25 fps, AVC ~1850 kbps avg, 0.125 bit/pixel
Свойства аудио: 48 kHz, AC3 Dolby Digital, 2/0 (L,R) ch, ~192 kbps

Информация MediaInfo ▼TextОбщее
Уникальный идентификатор : 226026211341118465021716254798630672228 (0xAA0B109AEA6A7678B18750F7E2E0D764)
Полное имя : E:DownloadsКомета века.2013.HDTVRip-AVC.mkv
Формат : Matroska
Версия формата : Version 2
Размер файла : 642 Мбайт
Продолжительность : 43 м.
Общий поток : 2044 Кбит/сек
Дата кодирования : UTC 2013-11-30 08:20:22
Программа кодирования : mkvmerge v5.8.0 (No Sleep / Pillow) built on Sep 2 2012 15:37:04
Библиотека кодирования : libebml v1.2.3 + libmatroska v1.3.0

Видео
Идентификатор : 1
Формат : AVC
Формат/Информация : Advanced Video Codec
Профиль формата : [email protected]
Параметр CABAC формата : Да
Параметр ReFrames формата : 5 кадров
Идентификатор кодека : V_MPEG4/ISO/AVC
Продолжительность : 43 м.
Битрейт : 1850 Кбит/сек
Ширина : 1024 пикселя
Высота : 576 пикселей
Соотношение сторон : 16:9
Частота кадров : 25,000 кадров/сек
Цветовое пространство : YUV
Субдискретизация насыщенности : 4:2:0
Битовая глубина : 8 бит
Тип развёртки : Прогрессивная
Бит/(Пиксели*Кадры) : 0.125
Размер потока : 569 Мбайт (89%)
Библиотека кодирования : x264 core 125 r2208 d9d2288
Настройки программы : cabac=1 / ref=5 / deblock=1:-2:-2 / analyse=0x3:0x111 / me=umh / subme=9 / psy=1 / psy_rd=1.00:0.15 / mixed_ref=1 / me_range=32 / chroma_me=1 / trellis=2 / 8x8dct=1 / cqm=0 / deadzone=21,11 / fast_pskip=0 / chroma_qp_offset=-3 / threads=12 / lookahead_threads=2 / sliced_threads=0 / nr=0 / decimate=1 / interlaced=0 / bluray_compat=0 / constrained_intra=0 / bframes=5 / b_pyramid=2 / b_adapt=0 / b_bias=0 / direct=1 / weightb=1 / open_gop=0 / weightp=2 / keyint=250 / keyint_min=25 / scenecut=40 / intra_refresh=0 / rc_lookahead=50 / rc=2pass / mbtree=1 / bitrate=1850 / ratetol=1.0 / qcomp=0.60 / qpmin=0 / qpmax=69 / qpstep=4 / cplxblur=20.0 / qblur=0.5 / ip_ratio=1.40 / aq=1:1.00
Default : Да
Forced : Нет

Аудио
Идентификатор : 2
Формат : AC-3
Формат/Информация : Audio Coding 3
Расширение режима : CM (complete main)
Идентификатор кодека : A_AC3
Продолжительность : 43 м.
Вид битрейта : Постоянный
Битрейт : 192 Кбит/сек
Каналы : 2 канала
Расположение каналов : Front: L R
Частота : 48,0 КГц
Битовая глубина : 16 бит
Метод сжатия : С потерями
Размер потока : 60,3 Мбайт (9%)
Заголовок : АРК-ТВ
Язык : Russian
Default : Да
Forced : Нет




bf32857e18df3dea37c17a1034c5337c66f658fc[NG] Комета века / Comet of the century (документальный, 2013) [HDTVRip-AVC, Профессиональный (одноголосый, закадровый)] [NG] Комета века / Comet of the century (документальный, 2013) [HDTVRip-AVC, Профессиональный (одноголосый, закадровый)] " />

Аплоадер: Админ, дата: 4-12-2013, 16:37, торрент скачан: 359 раз

Понравилась раздача? Посмотрите эти:
  • [NG] Комета века / Comet of the century (Документальный, 2013) [HDTVRip, Пр ...
  • 11.6 / 11.6 (Филипп Годо, Драма, триллер, криминал, 2013) [BDRip-AVC, Профе ...
  • [NG] Тайная жизнь хищников / Secret Life of Predators // Эпизод 1 по 4 (из ...
  • [BBC] Как устроена природа / BBC. How Nature Works // Эпизод 1 по 4 (из 4) ...
  • Обман Обамы / The Obama Deception: The Mask Comes Off (Документальный, 2009 ...
  • Голливудский мусор / Garbage (Филипп Волкен, драма, комедия, 2013) [HDTVRip ...
  • [BBC] BBC: Безжалостные убийцы / BBC: Ultimate Killers // Выпуск 1 по 3 (из ...
  • [BBC] BBC: Змеи / Wildlife Special. Serpent (Документальный, 2003) [DVDRip- ...
  • [NG] На крючке: Ловля монстров. Гигантский скат / Monster Fish. Giant Sting ...
  • [NG] Война львов / Lion Battle Zone (документальный, 2011) [HDTVRip-AVC, Пр ...
  • Новые технологии войны / The New Technology of War [Часть 1] (документальны ...
  • Новые технологии войны / The New Technology of War [Часть 2] (документальны ...
  • Дикий запад. Кино и реальность / The Wild And The West (документальный, 200 ...
  • Кошмары на стоянке трейлеров / Trailer Park of Terror (Стивен Голдманн, ужа ...
  • Суррогат / The Sessions (Бен Луин, Драма, 2012) [BDRip-AVC, Профессиональны ...
  • Чемпионат Англии 2012-2013 / 25-й тур / Обзор / Суббота / BBC Sport [2013 г ...
  • Чемпионат Англии 2012-2013 / 25-й тур / Обзор / Воскресенье / BBC Sport [20 ...
  • Лоракс: Серенада / The Lorax: Serenade (Кайл Балда, мультфильм, комедия, му ...
  • [NG] Гитлеровские лагеря смерти / Hitlers G.I. Death Camp (документальный, ...
  • Чемпионат Англии 2012-2013 / 19-й тур / Обзор / Среда / BBC Sport [2012 г., ...
  • Информация
    Посетители, находящиеся в группе Гости, не могут оставлять комментарии к данной публикации.