вход на сайт

Имя пользователя :
Пароль :

Восстановление пароля Регистрация
[NG] Тайны дикой природы Индии: Хищники джунглей / Secrets of Wild India: Tiger Jungles (документальный, 2011) [HDTVRip-720p, Профессиональный (одноголосный, закадровый)]
Рейтинг:
(голосов: 1)



[img]{THEME}/images/logopost.png[/img]



Тайны дикой природы Индии: Хищники джунглей / Secrets of Wild India: Tiger Jungles

Страна: США
Производство: Nat Geo Wild
Год выпуска: 2011
Жанр: документальный
Режиссёр: Дункан Чард / Duncan Chard
Ведущие: отсутствует
Участники: Животный Мир Индии.

Перевод: Профессиональный (одноголосный, закадровый) [Игорь Тарадайкин]

ОписаниеНа поле боя, где правят клыки и когти, хищники, такие как бенгальский тигр и красный волк, конкурируют за территорию, воду и пищу.

Тех. данные
Качество: HDTVRip-720p
Продолжительность: 00:44:24 часа

Формат: MKV
Видео кодек: AVC [email protected]
Аудио кодек: MP3
Свойства Видео: 1280x720 (19:6), 25,000 fps,AVC, ~ 2644 kbps avg, 0.115 bit/pixel
Свойства Аудио: 44,1 kHz, MPEG Layer 3, 2 ch, ~ 192.00 kbps avg

"MediaInfo" ▼Общее
Уникальный идентификатор : 219560589213559913191910821479025661767 (0xA52DD4D286A02B7A904CBC1CEA5AD747)
Полное имя : Тайны дикой природы Индии.Хищники джунглей.2011.mkv
Формат : Matroska
Версия формата : Version 1
Размер файла : 1,01 Гбайт
Продолжительность : 49 м.
Общий поток : 2894 Кбит/сек
Дата кодирования : UTC 2012-03-26 16:57:12
Программа кодирования : AVSMatroskaFile
Библиотека кодирования : libebml v0.7.7 + libmatroska v0.8.1

Видео
Идентификатор : 1
Формат : AVC
Формат/Информация : Advanced Video Codec
Профиль формата : [email protected]
Параметр CABAC формата : Да
Параметр ReFrames формата : 1 кадр
Идентификатор кодека : V_MPEG4/ISO/AVC
Продолжительность : 49 м.
Битрейт : 2644 Кбит/сек
Ширина : 1280 пикселей
Высота : 720 пикселей
Соотношение сторон : 16:9
Частота кадров : 25,000 кадров/сек
Цветовое пространство : YUV
Субдискретизация насыщенности : 4:2:0
Битовая глубина : 8 бит
Тип развёртки : Прогрессивная
Бит/(Пиксели*Кадры) : 0.115
Размер потока : 941 Мбайт (91%)
Default : Да
Forced : Нет

Аудио
Идентификатор : 2
Формат : MPEG Audio
Версия формата : Version 1
Профиль формата : Layer 3
Идентификатор кодека : A_MPEG/L3
Идентификатор кодека/Подсказка : MP3
Продолжительность : 49 м.
Вид битрейта : Постоянный
Битрейт : 192 Кбит/сек
Каналы : 2 канала
Частота : 44,1 КГц
Метод сжатия : С потерями
Размер потока : 68,3 Мбайт (7%)
Библиотека кодирования : LAMELAME_MAJOR_VERSI
Default : Да
Forced : Нет



|Cтол заказов| Наши раздачи| Набор в группу| Сказать спасибо|


0c213ccdb65373c5499e2bf37ca8e332859629eb[NG] Тайны дикой природы Индии: Хищники джунглей / Secrets of Wild India: Tiger Jungles (документальный, 2011) [HDTVRip-720p, Профессиональный (одноголосный, закадровый)] [NG] Тайны дикой природы Индии: Хищники джунглей / Secrets of Wild India: Tiger Jungles (документальный, 2011) [HDTVRip-720p, Профессиональный (одноголосный, закадровый)] " />

Аплоадер: Админ, дата: 27-03-2012, 18:18, торрент скачан: 359 раз

Понравилась раздача? Посмотрите эти:
  • Miranda Cosgrove / Dancing Crazy [2011, Pop, WEB-DLRip 720p]
  • Shontelle / Say Hello To Goodbye [2011, Country, Master]
  • Jennifer Lopez Feat. Lil Wayne / Im Into You (Lil Wayne Version) [2011, Pop ...
  • Rihanna / Man Down [2011, R&B, HDRip]
  • Полный путеводитель по пришельцам / The Definitive Guide to Aliens (выпуск ...
  • Лего: Звёздные войны - Награда бомбада / LEGO: Star wars - Вombad Bounty (П ...
  • [NG] Война львов / Lion Battle Zone (документальный, 2011) [HDTVRip-AVC, Пр ...
  • Дикий запад. Кино и реальность / The Wild And The West (документальный, 200 ...
  • Секреты дикой Индии / Secrets of Wild India // Сезон 1, выпуск 1-3 (из 3) ( ...
  • Чемпионат Англии 2012-2013 / 25-й тур / Обзор / Суббота / BBC Sport [2013 г ...
  • [NG] Бушующие миры: Смертоносная пыль / Storm Worlds: Deadly dust (Тим Воло ...
  • [NG] Гитлеровские лагеря смерти / Hitlers G.I. Death Camp (документальный, ...
  • Насекомое с другой планеты. Богомол / Insect from another planet. Mantis (Д ...
  • Kylie Minogue / Live At Last Night of The Proms [2012, Pop, HDTVRip 1080i]
  • Светлячок. Воссоединение Коричневых плащей к 10 годовщине / Firefly 10th An ...
  • В лесу / The Forest (Шан Серафин, ужасы, триллер , 2011) [SATRip, Профессио ...
  • Зов дикой природы / Call of the Wild Ричард Габай, приключения, драма, сем ...
  • [NG] Ночные охотники. Крокодилы / Nightstalkers. Crocodiles (National Geogr ...
  • [NG]Тайны дикой природы Индии: Львы пустыни / Secrets of Wild India: Desert ...
  • NBA 2012-2013 / RS / Philadelphia 76ers @ New York Knicks [Баскетбол, 04.11 ...
  • Информация
    Посетители, находящиеся в группе Гости, не могут оставлять комментарии к данной публикации.