вход на сайт

Имя пользователя :
Пароль :

Восстановление пароля Регистрация
[NG] Мегазаводы: Уильямс F1 / Megafactories: Williams F1 (документальный, научно-популярный, 2011) [TVRip, профессиональный (одноголосый)]
Рейтинг:
(голосов: 1)



[img]{THEME}/images/logopost.png[/img]



National Geographic: Мегазаводы: Уильямс F1 / Megafactories: Williams F1

Страна: США
Производство: National Geographic
Год выпуска: 2011
Жанр: документальный, научно - популярный
Режиссёр: Джереми Хол
Ведущие: Отсутствуют
Игроки/ или Участники: Команда формулы-1 Уильямс F1 (Williams F1)
Перевод: профессиональный (одноголосый)

Описание: Элитная команда формулы-1 Уильямс F1 (Williams F1) открывает свои двери для съемочной группы канала National Geographic , предоставляя беспрецедентный доступ на свой сверхсовременный завод .
Высокие технологии и гений разработчиков должны слиться воедино, ведь мегазавод Уильямс отправляется в гонку со временем, задавшись целью построить победную машину для для сегодняшнего.

Качество: TVRip

Продолжительность: 00:44:58.527

Формат: MPEG-4
Видео кодек: AVC
Аудио кодек: AAC LC
Свойства видео: 688*432 (1,593), в 25,000 кадров/сек, AVC ([email protected]) (CABAC / 8 Ref Frames), 999 Кбит/сек, 0.134 bit/pixel
Свойства аудио: 32,0 КГц, AAC (LC), 1 канал, 56,0 Кбит/сек

MediaInfo: ▼TextОбщее
Кол-во : 278
Кол-во потоков такого типа : 1
Тип потока : General
Тип потока : Общее
Идентификатор типа потока : 0
Inform : MPEG-4 (Base Media): 340 Мбайт, 44 м.
Кол-во видеопотоков : 1
Кол-во аудиопотоков : 1
Video_Format_List : AVC
Video_Format_WithHint_List : AVC
Видеокодеки : AVC
Audio_Format_List : AAC
Audio_Format_WithHint_List : AAC
Аудиокодеки : AAC LC
Audio_Language_List : English
Полное имя : D:КазторкаРелизы для казторки[Megazavody]Williams_F1(2011)TVRip[kaztorka.org].mp4
Имя папки : D:КазторкаРелизы для казторки
Имя файла : [Megazavody]Williams_F1(2011)TVRip[kaztorka.org]
Расширение : mp4
Формат : MPEG-4
Формат : MPEG-4
Формат/Используется в : mp4 m4v m4a m4b m4p 3gpp 3gp 3gpp2 3g2 k3g jpm jpx mqv ismv isma f4v
Коммерческое название : MPEG-4
Профиль формата : Base Media
Интернет-тип носителя : video/mp4
Идентификатор кодека : isom
Идентификатор кодека/Ссылка : http://www.apple.com/quicktime/download/standalone.html
Кодек : MPEG-4
Кодек : MPEG-4
Кодек/Используется в : mp4 m4v m4a m4b m4p 3gpp 3gp 3gpp2 3g2 k3g jpm jpx mqv ismv isma f4v
Размер файла : 357006976
Размер файла : 340 Мбайт
Размер файла : 340 Мбайт
Размер файла : 340 Мбайт
Размер файла : 340 Мбайт
Размер файла : 340,5 Мбайт
Продолжительность : 2698527
Продолжительность : 44 м.
Продолжительность : 44 м. 58 с. 527 мс.
Продолжительность : 44 м.
Продолжительность : 00:44:58.527
Режим общего битрейта : VBR
Режим общего битрейта : Переменный
Общий поток : 1058375
Общий поток : 1058 Кбит/сек
Размер потока : 1192485
Размер потока : 1,14 Мбайт (0%)
Размер потока : 1 Мбайт
Размер потока : 1,1 Мбайт
Размер потока : 1,14 Мбайт
Размер потока : 1,137 Мбайт
Размер потока : 1,14 Мбайт (0%)
Пропорции потока : 0.00334
HeaderSize : 1192408
DataSize : 355814499
FooterSize : 69
IsStreamable : Yes
Дата кодирования : UTC 2012-03-13 09:11:56
Дата пометки : UTC 2012-03-13 09:11:56
Дата файла : UTC 2012-03-14 11:07:56.692
Дата файла (местная) : 2012-03-14 17:07:56.692
Дата изменения файла : UTC 2012-03-14 11:34:57.244
Дата изменения файла (местная) : 2012-03-14 17:34:57.244
Программа кодирования : My MP4Box GUI 0.5.5.4

Видео
Кол-во : 205
Кол-во потоков такого типа : 1
Тип потока : Video
Тип потока : Видео
Идентификатор типа потока : 0
Inform : 999 Кбит/сек, 688*432 (1,593), в 25,000 кадров/сек, AVC ([email protected]) (CABAC / 8 Ref Frames)
Идентификатор : 1
Идентификатор : 1
Формат : AVC
Формат/Информация : Advanced Video Codec
Формат/Ссылка : http://developers.videolan.org/x264.html
Коммерческое название : AVC
Профиль формата : [email protected]
Настройки формата : CABAC / 8 Ref Frames
Параметр CABAC формата : Yes
Параметр CABAC формата : Да
Параметр ReFrames формата : 8
Параметр ReFrames формата : 8 кадров
Интернет-тип носителя : video/H264
Идентификатор кодека : avc1
Идентификатор кодека/Информация : Advanced Video Coding
Идентификатор кодека/Ссылк
1c89d06e2317e92766a6723a1d1e1a326db87a13[NG] Мегазаводы: Уильямс F1 / Megafactories: Williams F1 (документальный, научно-популярный, 2011) [TVRip, профессиональный (одноголосый)] [NG] Мегазаводы: Уильямс F1 / Megafactories: Williams F1 (документальный, научно-популярный, 2011) [TVRip, профессиональный (одноголосый)] " />

Аплоадер: Админ, дата: 14-03-2012, 17:50, торрент скачан: 359 раз

Понравилась раздача? Посмотрите эти:
  • Hurts / Somebody to Die For [2013, Pop, WEBRip]
  • Rita Ora / Shine Ya Light [2012, R&B, Master]
  • Русский Размер / До тебя [2012, Pop, HDRip]
  • Герои / Закаты алые [2012, Pop, WebRip]
  • Tonari no kaibutsu kun / Rihanna Diamonds (2012)
  • Miranda Cosgrove / Dancing Crazy [2011, Pop, WEB-DLRip 720p]
  • Shontelle / Say Hello To Goodbye [2011, Country, Master]
  • Madcon / The Signal [2013, Hip-Hop, HDRip]
  • Ariana Grande - ft. Mac Miller / The Way [2013, Pop, WEB-DLRip 1080p]
  • Jay Sean / So High [2012, Pop, HDRip]
  • Принуждение к прививке / Impf-Zwang (документальный, 2012) [HD 720p, Профес ...
  • Пути ненависти / Paths of Hate (Дамиан Ненов, мультфильм, короткометражка, ...
  • [NG] Мегазаводы: Фрито Лей / Megafactories: Frito Lay (Документальный, 2011 ...
  • Чемпионат Англии 2012-2013 / 18-й тур / Челси - Астон Вилла / Спорт 1 [23.1 ...
  • Нонито Донэйр - Хорхе Арсе / Nonito Donaire vs Jorge Arce [Бокс, 15.12.2012 ...
  • Катя Чехова & Vortex Involute / Жизнь [2008, House, Dram & Bass, WE ...
  • Matt Darey feat Leah / Hold Your Breath (KhoMha Remix) [2012, Remix/Dance/T ...
  • Три банана (Михаил Ботов, Мультфильм, 1971) [SATRip, Не требуется]
  • Экстрасенсы ведут расследование // Сезон 3, Выпуск 2 (20) (Паранормальное ш ...
  • Очень страшное кино 3 / Scary Movie 3 (Дэвид Цукер, Комедия, 2003) [HDTVRip ...
  • Голый пистолет: из архивов полиции! / The Naked Gun: From the Files of Poli ...
  • Очень страшное кино 4 / Scary Movie 4 [Unrated] (Дэвид Цукер , Комедия, 200 ...
  • Рассмеши комика // 3 сезон, 2 выпуск (ТВ-Шоу, Юмор, 24/03/2012) [SATRip, Ор ...
  • Comedy Club / Лучшее (ТВ-шоу, юмор, 07.04.2012) [IPTVRip, Не требуется]
  • [NG] Мегазаводы: Уильямс Ф-1 / Megafactories: Williams F1 (Документальный, ...
  • Информация
    Посетители, находящиеся в группе Гости, не могут оставлять комментарии к данной публикации.