вход на сайт

Имя пользователя :
Пароль :

Восстановление пароля Регистрация
[Discovery] Искусство кино. Лаборатория спецэффектов. Трансформеры - живой Бамблби! / Science of the Movies (Документальный, научно-популярный, 2011) [SATRip, Профессиональный (одноголосый, закадровый)]
Рейтинг:
(голосов: 1)



[img]{THEME}/images/logopost.png[/img]



Искусство кино. Лаборатория спецэффектов.Трансформеры - живой Бамблби! / Science of the Movies

Страна: США
Производство:Discovery channel
Год выпуска: 2011
Жанр: Документальный, научно-популярный
Режиссёр: Нар Уильямс
Ведущие: Нар Уильмс
Участники:: команда компании FXPERTS, команда компании IMAGE METRICS
Перевод: Профессиональный (одноголосый, закадровый).

Описание:Кино сегодня ― союз искусства и науки. Компьютерная графика, трехмерное изображение, захватывающие спецэффекты присутствуют во многих фильмах. Ведущий программы Нар Уильямс, актер, любитель фантастики и автор нескольких научно-популярных программ, решил познакомиться с создателями блокбастеров. Он встречается с лучшими специалистами «Фабрики грез», отмеченными престижными премиями, которые демонстрируют оборудование для создания новых технологий, знакомится с каскадерами и дрессировщиками необычных животных.
Мало кого оставят равнодушными сюжеты о том, как создатели «Южного парка» снимали эпизоды на головокружительной скорости, как создавались визуальные эффекты для фильма ужасов «Кошмар на улице Вязов» или как Джеймс Кэмерон создавал эффект «захвата движения» для самого дорогого проекта в истории кино ― «Аватара».
Ведущий программы часто пробует на себе последние достижения техники, чтобы наглядно продемонстрировать ее возможности в создании киноспецэффектов.
В выпуске: Нар помогает специалистам по спецэффектам создать 8-метрового робота из фильма "Трансформеры". Затем в студии Image Metrics он превращается в персонажа видеоигры.


Качество: SATRip

Продолжительность: 00:43:53

Формат: AVI
Видео кодек: DivX
Аудио кодек: MP3
Свойства Видео: 720x400 (1.80:1), 25 fps, DivX Codec 6.8.5/6.9.1 ~1602 kbps avg, 0.22 bit/pixel
Свойства Аудио: 44.100 kHz, MPEG Layer 3, 2 ch, ~128.00 kbps avg
"MediaInfo:" ▼Общее
Полное имя : C:UsersEugenDesktopРАЗДАЧАЛаборатория спецэффектов.Трансформеры - живой Бамблби!.avi
Формат : AVI
Формат/Информация : Audio Video Interleave
Размер файла : 545 Мбайт
Продолжительность : 43 м.
Общий поток : 1736 Кбит/сек
Библиотека кодирования : TMPGEnc 4.0 XPress Version. 4.7.7.307

Видео
Идентификатор : 0
Формат : MPEG-4 Visual
Параметр BVOP формата : 1
Параметр QPel формата : Нет
Параметр GMC формата : Без точки перехода
Параметр матрицы формата : Default (H.263)
Режим смешивания : Сжатый битовый поток
Идентификатор кодека : DX50
Идентификатор кодека/Подсказка : DivX 5
Продолжительность : 43 м.
Битрейт : 1600 Кбит/сек
Ширина : 720 пикселей
Высота : 400 пикселей
Соотношение сторон : 16:9
Частота кадров : 25,000 кадров/сек
Цветовое пространство : YUV
Субдискретизация насыщенности : 4:2:0
Битовая глубина : 8 бит
Тип развёртки : Прогрессивная
Метод сжатия : С потерями
Бит/(Пиксели*Кадры) : 0.222
Размер потока : 502 Мбайт (92%)
Библиотека кодирования : DivX 6.8.5 (UTC 2009-08-20)

Аудио
Идентификатор : 1
Формат : MPEG Audio
Версия формата : Version 1
Профиль формата : Layer 3
Режим : Joint stereo
Расширение режима : MS Stereo
Идентификатор кодека : 55
Идентификатор кодека/Подсказка : MP3
Продолжительность : 43 м.
Вид битрейта : Постоянный
Битрейт : 128 Кбит/сек
Каналы : 2 канала
Частота : 44,1 КГц
Метод сжатия : С потерями
Размер потока : 40,2 Мбайт (7%)
Выравнивание : Соединение по промежуткам
Продолжительность промежутка : 250 мс. (6,25 видеокадров)
Время предзагрузки промежутка : 209 мс.




cda10af16f9974efa3b469146774a9f483c5aea0[Discovery] Искусство кино. Лаборатория спецэффектов. Трансформеры - живой Бамблби! / Science of the Movies (Документальный, научно-популярный, 2011) [SATRip, Профессиональный (одноголосый, закадровый)] [Discovery] Искусство кино. Лаборатория спецэффектов. Трансформеры - живой Бамблби! / Science of the Movies (Документальный, научно-популярный, 2011) [SATRip, Профессиональный (одноголосый, закадровый)] " />

Аплоадер: Админ, дата: 8-03-2012, 01:21, торрент скачан: 359 раз

Понравилась раздача? Посмотрите эти:
  • [Discovery] Как устроена Земля. Ледниковый период или адский огонь? / Disco ...
  • [BBC] История Науки / The Story of Science // Сезон 1, Эпизоды 1-6 (из 6) ( ...
  • [Discovery] Новый Большой взрыв / The New Big Bang (документальный, научно- ...
  • Гибель Западной цивилизации? / Civilization: Is the West History? // Сезон ...
  • [BBC] Мощь Природы / Massive Nature // Сезон 1, Эпизоды 1-6 (из 6) (Научно- ...
  • [Discovery] Технополис / Technopolis // Сезон 1, Эпизоды 1-10 (из 10) (доку ...
  • [Discovery] Кухонная химия / Kitchen Сhemistry // Сезон 1, Эпизоды 1-6 (из ...
  • Водород - горючее будущего / Hydrogen - future fuel (Документальный, научно ...
  • [Discovery] Тайная наука Гитлера / Hitlers Secret Science (Документальный, ...
  • Светлячок. Воссоединение Коричневых плащей к 10 годовщине / Firefly 10th An ...
  • Искусство кино (Сезон 1. Сезон 2, 3 серии из 5) / Science of the Movies (Di ...
  • [BBC] Сенсационное опровержение / Goes the theory bang (научно-популярный, ...
  • [Discovery] Разрушители легенд. Колыбель Ньютона / MythBusters. Newton’s Cr ...
  • [Discovery] Разоблачение динозавров / Dinosaurs decoded (научно-популярный, ...
  • [Discovery] Возвращение в Бермудский треугольник / Return To The Bermuda Tr ...
  • [Discovery] Похитители тел / Body Snatchers (Научно-популярный, документаль ...
  • [Discovery] Правдивая история секса и любви / The Surprising History of Sex ...
  • Серьезный разговор: Пиво. Больше ли позитива? (Документальный, научно-попул ...
  • [NG] Пути эволюции: Последний живой динозавр / Dino Turkey (Документальный, ...
  • Силиконовая Долина (Документальный, 2012) [SatRip, Профессиональный (одного ...
  • Информация
    Посетители, находящиеся в группе Гости, не могут оставлять комментарии к данной публикации.