вход на сайт

Имя пользователя :
Пароль :

Восстановление пароля Регистрация
[NG] В глубинах Ледовитого океана / Deepsea Under The Pole (Документальный, 2010) [SatRip, Профессиональный (одноголосый)]
Рейтинг:
(голосов: 1)



[img]{THEME}/images/logopost.png[/img]



В глубинах Ледовитого океана / Deepsea Under The Pole

Страна: США
Производство: National Geographic
Год выпуска: 2010
Жанр: Документальный

Режиссёр: Thierry Robert
Ведущие: Sam Guy
Участники: Дайверы и Каяк сибирская хаски

Перевод: Профессиональный (одноголосый)

Описание
Съемочная группа погружается с аквалангами на Северном полюсе, открывая для нас поразительную безмолвную вселенную подо льдом Ледовитого океана...
Mediainfo ▼TextGeneral
Complete name : D:В глубинах Ледовитого океана.avi
Format : AVI
Format/Info : Audio Video Interleave
File size : 616 MiB
Duration : 44mn 58s
Overall bit rate : 1 915 Kbps
Writing application : VirtualDubModRus 1.5.10.2 (build 2542/release)
Writing library : VirtualDubMod build 2542/release

Video
Format : xvid
Codec ID : xvid
Duration : 44mn 58s
Bit rate : 1 777 Kbps
Width : 704 pixels
Height : 400 pixels
Display aspect ratio : 16:9
Frame rate : 25.000 fps
Bits/(Pixel*Frame) : 0.252
Stream size : 572 MiB (93%)

Audio
ID : 1
Format : MPEG Audio
Format version : Version 1
Format profile : Layer 3
Mode : Joint stereo
Codec ID : 55
Codec ID/Hint : MP3
Duration : 44mn 58s
Bit rate mode : Constant
Bit rate : 128 Kbps
Channel(s) : 2 channels
Sampling rate : 48.0 KHz
Stream size : 41.2 MiB (7%)
Alignment : Split accross interleaves
Interleave, duration : 40 ms (1.00 video frame)
Int
c1b969e16cb3c4c9ef816c9e0811856c919e2670[NG] В глубинах Ледовитого океана / Deepsea Under The Pole (Документальный, 2010) [SatRip, Профессиональный (одноголосый)] [NG] В глубинах Ледовитого океана / Deepsea Under The Pole (Документальный, 2010) [SatRip, Профессиональный (одноголосый)] " />

Аплоадер: Админ, дата: 5-12-2011, 14:59, торрент скачан: 359 раз

Понравилась раздача? Посмотрите эти:
  • [National Geographic] Мамонт: Воскрешение из мертвых / Mammoth: Back from t ...
  • [National Geographic] Британские НЛО: Новые факты / Mammoth: Back from the ...
  • IMAX: Происхождение Океана / IMAX: Ocean origins (Документальный, 2001) [HD ...
  • NG:Мое 11 сентября / My 9/11 (документальный, 2011) [HDTVRip, закадровый ,о ...
  • [NG] Путешествие по Атлантике: Часть 2 / Travel across the Atlantic: Part 2 ...
  • [NG] Превосходство бегемота / The superiority of the hippo (Документальный, ...
  • Без всего / Sin ella (Джордже Колон, Мелодрама, 2010) [HDTVRip , Профессион ...
  • Человек океана: Экстремальное погружение / Ocean Men: Extreme Dive (Боб Тал ...
  • [NG] Загадки Библии: Ной и всемирный потоп / Riddles of the bible: Noah (До ...
  • [BBC] Мир природы: Горные вершины Шотландии / The Natural World: Hightops o ...
  • Погружение на дно Океана / Dive To The Bottom Of The World (Discovery, Доку ...
  • [NG] Мегазаводы: Додж-Вайпер / Megafactories: Dodge Viper (Документальный, ...
  • Дневники разработчиков Nissan GT-R / The GT-R Legend (Хакидо Санир, Докумен ...
  • [BBC] Бермудский треугольник. Тайна глубин океана / Bermuda Triangle: Benea ...
  • [BBC] Сибирский апокалипсис / Siberian Apocalypse (Документальный, 2006) [H ...
  • [NG] Разгадка египетских тайн: Тайны долины Царей / Secrets of the Valley o ...
  • [NG] Свидетели японской катастрофы / Witness : Disaster in Japan (Документа ...
  • [BBC] Загадки Древности: Магия алхимии / Ancient Mysteries: The Magic of Al ...
  • [BBC] Мир природы: Сила Луны / The Natural World: Moon Power (Документальны ...
  • Бессмертие / Immortality (Документальный, 2008) [SatRip, Профессиональный ( ...
  • [BBC] Рысь: Неуловимый охотник / Lynx: The Elusive Hunter (Документальный, ...
  • [NG] И человек приручил собаку / And Man Created Dog (Документальный, позна ...
  • [NG] Рыбы-хищники / Sea strikers (Документальный, 2010) [SATRip, Профессион ...
  • Олимпийский квалификационный турнир 2012 / Венесуэла / Мужчины / Группа C / ...
  • [BBC] Пришельцы со дна океана / Aliens from the ocean floor (Документальный ...
  • Информация
    Посетители, находящиеся в группе Гости, не могут оставлять комментарии к данной публикации.